请选择 进入手机版 | 继续访问电脑版

5n电影网

 找回密码
 立即注册

闪电奇侠刚达拉 Gundala.2019.720p.BluRay.x264-WUTANG 6.01GB

[复制链接]
电影天堂 发表于 2020-7-24 18:20:10 | 显示全部楼层 |阅读模式
帖子完整标题:闪电奇侠刚达拉 Gundala.2019.720p.BluRay.x264-WUTANG 6.01GB




◎译  名 闪电奇侠刚达拉
◎片  名 Gundala
◎年  代 2019
◎产  地 印度尼西亚
◎语  言 印尼
◎上映日期 2019-08-29(印度尼西亚)
◎IMDb评分  6.9/10 from 2610 users
◎片  长 119分钟
◎导  演 乔可·安华 Joko Anwar
◎编  剧 乔可·安华 Joko Anwar

◎标  签 印尼 | 超级英雄 | 动作 | 印度尼西亚 | 犯罪 | 科幻 | 2019 | Joko_Anwar

◎简  介   

  曾以《鬼摇灵》荣登上印尼影史最卖座鬼片的导演乔可安华,动作新作《闪电奇侠刚达拉》不让漫威、DC专美于前,决定将印尼问世半世纪的经典漫画〈刚达拉〉搬上大银幕。刚达拉不仅有闪电侠的外型、雷神索尔的威能、美国队长的领袖特质、以及V怪客的左翼精神,加上媲美叶问的刚猛动作与炫目的视觉效果,既接地气又有全球性。影片不仅创下高票房,导演、演员、技术与原创性,皆获好评,一举入围堪称印尼奥斯卡的芝特拉电影奖九项大奖。
Video
ID                                       : 1
Format                                   : AVC
Format/Info                              : Advanced Video Codec
Format settings                          : CABAC / 8 Ref Frames
Format settings, CABAC                   : Yes
Format settings, Reference frames        : 8 frames
Codec ID                                 : V_MPEG4/ISO/AVC
Duration                                 : 2 h 0 min
Bit rate                                 : 5 873 kb/s
Width                                    : 1 280 pixels
Height                                   : 536 pixels
Display aspect ratio                     : 2.40:1
Frame rate mode                          : Constant
Frame rate                               : 24.000 FPS
Color space                              : YUV
Chroma subsampling                       : 4:2:0
Bit depth                                : 8 bits
Scan type                                : Progressive
Bits/(Pixel*Frame)                       : 0.357
Stream size                              : 4.92 GiB (82%)
Writing library                          : x264 core 161 r3015 4c2aafd
Encoding settings                        : cabac=1 / ref=8 / deblock=1:-3:-3 / analyse=0x3:0x133 / me=umh / subme=9 / psy=1 / psy_rd=1.00:0.00 / mixed_ref=1 / me_range=24 / chroma_me=1 / trellis=2 / 8x8dct=1 / cqm=0 / deadzone=21,11 / fast_pskip=0 / chroma_qp_offset=-2 / threads=17 / lookahead_threads=1 / sliced_threads=0 / nr=0 / decimate=1 / interlaced=0 / bluray_compat=0 / constrained_intra=0 / bframes=3 / b_pyramid=2 / b_adapt=2 / b_bias=0 / direct=3 / weightb=1 / open_gop=0 / weightp=2 / keyint=250 / keyint_min=24 / scenecut=40 / intra_refresh=0 / rc=crf / mbtree=0 / crf=15.0 / qcomp=0.60 / qpmin=0 / qpmax=69 / qpstep=4 / ip_ratio=1.40 / pb_ratio=1.30 / aq=3:0.80
Default                                  : Yes
Forced                                   : No
Color range                              : Limited
Matrix coefficients                      : BT.709

Audio #1
ID                                       : 2
Format                                   : AC-3
Format/Info                              : Audio Coding 3
Commercial name                          : Dolby Digital
Codec ID                                 : A_AC3
Duration                                 : 2 h 0 min
Bit rate mode                            : Constant
Bit rate                                 : 640 kb/s
Channel(s)                               : 6 channels
Channel layout                           : L R C LFE Ls Rs
Sampling rate                            : 48.0 kHz
Frame rate                               : 31.250 FPS (1536 SPF)
Bit depth                                : 16 bits
Compression mode                         : Lossy
Stream size                              : 549 MiB (9%)
Title                                    : Indonesian
Language                                 : Indonesian
Service kind                             : Complete Main
Default                                  : Yes
Forced                                   : No

Audio #2
ID                                       : 3
Format                                   : AC-3
Format/Info                              : Audio Coding 3
Commercial name                          : Dolby Digital
Codec ID                                 : A_AC3
Duration                                 : 2 h 0 min
Bit rate mode                            : Constant
Bit rate                                 : 640 kb/s
Channel(s)                               : 6 channels
Channel layout                           : L R C LFE Ls Rs
Sampling rate                            : 48.0 kHz
Frame rate                               : 31.250 FPS (1536 SPF)
Bit depth                                : 16 bits
Compression mode                         : Lossy
Stream size                              : 549 MiB (9%)
Title                                    : English Dub
Language                                 : English
Service kind                             : Complete Main
Default                                  : No
Forced                                   : No

Text #1
ID                                       : 4
Format                                   : UTF-8
Codec ID                                 : S_TEXT/UTF8
Codec ID/Info                            : UTF-8 Plain Text
Duration                                 : 1 h 54 min
Bit rate                                 : 37 b/s
Count of elements                        : 1030
Stream size                              : 31.9 KiB (0%)
Title                                    : English Forced
Language                                 : English
Default                                  : Yes
Forced                                   : Yes

Text #2
ID                                       : 5
Format                                   : UTF-8
Codec ID                                 : S_TEXT/UTF8
Codec ID/Info                            : UTF-8 Plain Text
Duration                                 : 1 h 24 min
Bit rate                                 : 0 b/s
Count of elements                        : 12
Stream size                              : 171 Bytes (0%)
Title                                    : English Forced for English Dub
Language                                 : English
Default                                  : No
Forced                                   : No

Text #3
ID                                       : 6
Format                                   : PGS
Muxing mode                              : zlib
Codec ID                                 : S_HDMV/PGS
Codec ID/Info                            : Picture based subtitle format used on BDs/HD-DVDs
Duration                                 : 1 h 54 min
Bit rate                                 : 24.7 kb/s
Count of elements                        : 2058
Stream size                              : 20.3 MiB (0%)
Language                                 : English
Default                                  : No
Forced                                   : No

Menu
00:00:00.000                             : en:Chapter 01
00:10:21.833                             : en:Chapter 02
00:18:44.625                             : en:Chapter 03
00:26:22.875                             : en:Chapter 04
00:36:38.167                             : en:Chapter 05
00:46:39.417                             : en:Chapter 06
00:55:21.333                             : en:Chapter 07
01:05:06.333                             : en:Chapter 08
01:14:18.458                             : en:Chapter 09
01:22:09.208                             : en:Chapter 10
01:33:47.542                             : en:Chapter 11
01:42:31.000                             : en:Chapter 12
01:52:24.917                             : en:Chapter 13




                                                                                                                                                                                                        
                                                                                                                                                                                                                                                                                                                                                                                                                                                                                                                                                               d2c0189bb103ad5d27be925d75f8a019.zip                                                                  

回复

使用道具 举报

您需要登录后才可以回帖 登录 | 立即注册

本版积分规则

5n电影网  

本网站所有资源来自网络,如无意中侵犯了您的权益,请发邮件至 [email protected],立即清除相关链接

GMT+8, 2020-8-5 03:25 , Processed in 0.139477 second(s), 27 queries .

Powered by Discuz! X3.2

© 2001-2013 Comsenz Inc.

快速回复 返回顶部 返回列表