请选择 进入手机版 | 继续访问电脑版

5n电影网

 找回密码
 立即注册

异界 Coma.2019.RUSSIAN.720p.BluRay.x264.DTS-HDH 4.70GB

[复制链接]
高清bt 发表于 2020-7-24 18:20:09 | 显示全部楼层 |阅读模式
帖子完整标题:异界 Coma.2019.RUSSIAN.720p.BluRay.x264.DTS-HDH 4.70GB




◎译  名 异界 / Koma / The Coma / 昏迷
◎片  名 Кома
◎年  代 2020
◎产  地 俄罗斯
◎类  别 科幻
◎语  言 俄语
◎上映日期 2020-01-30(俄罗斯)
◎IMDb评分  6.5/10 from 2299 users
◎片  长 111分钟
◎导  演 尼基塔·阿格诺夫 Nikita Argunov
◎编  剧 尼基塔·阿格诺夫 Nikita Argunov / 提莫非·邓肯 Timofei Dekin / 阿莱克西·克莱福科维奇 Aleksey Gravitskiy
◎主  演 林奈·穆罕默托夫 Rinal Mukhametov
       柳波芙·阿克肖诺娃 Lyubov Aksyonova
       安东·庞布施尼 Anton Pampushnyy
       米洛斯·比柯维奇 Milos Bikovic
       康斯坦丁·拉夫罗年科 Konstantin Lavronenko
       阿列克谢·谢列布里亚科夫 Aleksey Serebryakov
       维伦·巴比切夫 Vilen Babichev
       Polina Kuzminskaya


◎标  签 科幻 | 俄罗斯 | 科幻片 | 科幻奇幻 | 俄罗斯电影 | 悬疑 | 惊悚 | 2019

◎简  介   

  在一场巨大而神秘的事故之后,一位年轻有才华的建筑师在一个与现实世界相似的奇异世界里苏醒,这个世界建立在这里人民的记忆之上,而这些人则处于深度昏迷之中。由于这些人的记忆力参差不齐、混乱、不稳定,导致奇怪的记忆和回忆——城市、冰川、河流可以共存在一个房间里,所有的物理定律都可以被打破,建筑师必须找到他们昏迷的具体规律,才能找到通往现实世界的出口。就在他与命运抗争的同时遇到了真爱,而经历此次昏迷之后,他发现自己不得不重新认识这个世界……
Video
ID                                       : 1
Format                                   : AVC
Format/Info                              : Advanced Video Codec
Format settings                          : CABAC / 12 Ref Frames
Format settings, CABAC                   : Yes
Format settings, Reference frames        : 12 frames
Codec ID                                 : V_MPEG4/ISO/AVC
Duration                                 : 1 h 50 min
Bit rate                                 : 4 564 kb/s
Width                                    : 1 280 pixels
Height                                   : 536 pixels
Display aspect ratio                     : 2.40:1
Frame rate mode                          : Constant
Frame rate                               : 24.000 FPS
Color space                              : YUV
Chroma subsampling                       : 4:2:0
Bit depth                                : 8 bits
Scan type                                : Progressive
Bits/(Pixel*Frame)                       : 0.277
Stream size                              : 3.53 GiB (75%)
Writing library                          : x264 core 142 r2431+42 c69a006 tMod [1:2:0 X86_64]
Encoding settings                        : cabac=1 / ref=12 / deblock=1:-3:-3 / analyse=0x3:0x113 / me=umh / subme=10 / psy=1 / fade_compensate=0.00 / psy_rd=1.00:0.05 / mixed_ref=1 / me_range=32 / chroma_me=1 / trellis=2 / 8x8dct=1 / cqm=0 / deadzone=21,11 / fast_pskip=0 / chroma_qp_offset=-2 / threads=48 / lookahead_threads=4 / sliced_threads=0 / nr=0 / decimate=1 / interlaced=0 / bluray_compat=0 / constrained_intra=0 / fgo=0 / bframes=8 / b_pyramid=2 / b_adapt=2 / b_bias=0 / direct=3 / weightb=1 / open_gop=0 / weightp=2 / keyint=250 / keyint_min=24 / scenecut=40 / intra_refresh=0 / rc=crf / mbtree=0 / crf=17.8000 / qcomp=0.60 / qpmin=0:0:0 / qpmax=69:69:69 / qpstep=4 / ip_ratio=1.40 / pb_ratio=1.30 / aq=3:0.80 / aq-sensitivity=10.00 / aq-factor=1.00:1.00:1.00 / aq2=0 / aq3=0
Default                                  : Yes
Forced                                   : No
Color range                              : Limited
Matrix coefficients                      : BT.709

Audio
ID                                       : 2
Format                                   : DTS
Format/Info                              : Digital Theater Systems
Codec ID                                 : A_DTS
Duration                                 : 1 h 50 min
Bit rate mode                            : Constant
Bit rate                                 : 1 509 kb/s
Channel(s)                               : 6 channels
Channel layout                           : C L R Ls Rs LFE
Sampling rate                            : 48.0 kHz
Frame rate                               : 93.750 FPS (512 SPF)
Bit depth                                : 24 bits
Compression mode                         : Lossy
Stream size                              : 1.17 GiB (25%)
Language                                 : Russian
Default                                  : Yes
Forced                                   : No

Text
ID                                       : 3
Format                                   : UTF-8
Codec ID                                 : S_TEXT/UTF8
Codec ID/Info                            : UTF-8 Plain Text
Duration                                 : 1 h 41 min
Bit rate                                 : 41 b/s
Count of elements                        : 1009
Stream size                              : 30.6 KiB (0%)
Language                                 : English
Default                                  : Yes
Forced                                   : Yes




                                                                                                                                                                                                        
                                                                                                                                                                                                                                                                                                                                                                                                                                                                                                                                                                         3230b8ffc519c75a1087606bfaf4f611.zip (48.12 KB, 下载次数: 0)

回复

使用道具 举报

您需要登录后才可以回帖 登录 | 立即注册

本版积分规则

5n电影网  

本网站所有资源来自网络,如无意中侵犯了您的权益,请发邮件至 [email protected],立即清除相关链接

GMT+8, 2020-8-5 03:29 , Processed in 0.156945 second(s), 30 queries .

Powered by Discuz! X3.2

© 2001-2013 Comsenz Inc.

快速回复 返回顶部 返回列表