请选择 进入手机版 | 继续访问电脑版

5n电影网

 找回密码
 立即注册

众神之谷 Valley.of.the.Gods.2019.1080p.BluRay.x264-WUTANG 10.03GB

[复制链接]
电影天堂 发表于 昨天 12:07 | 显示全部楼层 |阅读模式
帖子完整标题:众神之谷 Valley.of.the.Gods.2019.1080p.BluRay.x264-WUTANG 10.03GB




◎译  名 众神之谷 / DOLINA BOGóW
◎片  名 Valley of the Gods
◎年  代 2019
◎产  地 波兰 / 卢森堡
◎类  别 剧情
◎语  言 英语
◎上映日期 2019-09-17(格丁尼亚波兰电影节) / 2020-08-11(美国)
◎IMDb评分  6.1/10 from 60 users
◎片  长 131分钟
◎导  演 莱彻·玛祖斯基 Lech Majewski
◎编  剧 莱彻·玛祖斯基 Lech Majewski
◎主  演 乔什·哈奈特 Josh Hartnett
       约翰·马尔科维奇 John Malkovich
       杰米·雷·纽曼 Jaime Ray Newman
       约翰·瑞斯-戴维斯 John Rhys-Davies
       贝纳尼丝·玛尔洛 Bérénice Marlohe
       凯尔·杜拉 Keir Dullea
       托卡拉·克利福德 Tokala Clifford
       萨吉诺·格兰特 Saginaw Grant
       马雷克·普罗博什 Marek Probosz
       克里斯·丹尼齐奥 Cris D'Annunzio
       大卫·普莱斯 David L. Price
       莱赫·德布里克 Lech Dyblik
       Joseph Runningfox
       Steven Skyler
       John A. Lorenz


◎标  签 乔什·哈奈特 | 科幻 | 电影 | 波兰电影 | 奇幻 | 波兰 | 卢森堡 | 剧情

◎简  介   

  故事围绕亿万富翁作家约翰·埃卡斯(哈奈特饰)及他创建的富有神秘气息的理想社会展开。
Video
ID                                       : 1
Format                                   : AVC
Format/Info                              : Advanced Video Codec
Format settings                          : CABAC / 5 Ref Frames
Format settings, CABAC                   : Yes
Format settings, Reference frames        : 5 frames
Codec ID                                 : V_MPEG4/ISO/AVC
Duration                                 : 2 h 6 min
Bit rate                                 : 8 968 kb/s
Width                                    : 1 920 pixels
Height                                   : 804 pixels
Display aspect ratio                     : 2.40:1
Frame rate mode                          : Constant
Frame rate                               : 24.000 FPS
Color space                              : YUV
Chroma subsampling                       : 4:2:0
Bit depth                                : 8 bits
Scan type                                : Progressive
Bits/(Pixel*Frame)                       : 0.242
Stream size                              : 7.94 GiB (79%)
Writing library                          : x264 core 161 r3018 db0d417
Encoding settings                        : cabac=1 / ref=5 / deblock=1:-3:-3 / analyse=0x3:0x133 / me=umh / subme=9 / psy=1 / psy_rd=1.00:0.00 / mixed_ref=1 / me_range=32 / chroma_me=1 / trellis=2 / 8x8dct=1 / cqm=0 / deadzone=21,11 / fast_pskip=0 / chroma_qp_offset=-2 / threads=24 / lookahead_threads=2 / sliced_threads=0 / nr=0 / decimate=1 / interlaced=0 / bluray_compat=0 / constrained_intra=0 / bframes=3 / b_pyramid=2 / b_adapt=2 / b_bias=0 / direct=3 / weightb=1 / open_gop=0 / weightp=2 / keyint=250 / keyint_min=24 / scenecut=40 / intra_refresh=0 / rc=crf / mbtree=0 / crf=16.9 / qcomp=0.60 / qpmin=0 / qpmax=69 / qpstep=4 / ip_ratio=1.40 / pb_ratio=1.30 / aq=3:0.90
Default                                  : Yes
Forced                                   : No
Color range                              : Limited
Matrix coefficients                      : BT.709

Audio
ID                                       : 2
Format                                   : DTS XLL
Format/Info                              : Digital Theater Systems
Commercial name                          : DTS-HD Master Audio
Codec ID                                 : A_DTS
Duration                                 : 2 h 6 min
Bit rate mode                            : Variable
Bit rate                                 : 2 357 kb/s
Channel(s)                               : 6 channels
Channel layout                           : C L R Ls Rs LFE
Sampling rate                            : 48.0 kHz
Frame rate                               : 93.750 FPS (512 SPF)
Bit depth                                : 16 bits
Compression mode                         : Lossless
Stream size                              : 2.09 GiB (21%)
Title                                    : English
Language                                 : English
Default                                  : Yes
Forced                                   : No

Text
ID                                       : 3
Format                                   : PGS
Muxing mode                              : zlib
Codec ID                                 : S_HDMV/PGS
Codec ID/Info                            : Picture based subtitle format used on BDs/HD-DVDs
Duration                                 : 1 h 53 min
Bit rate                                 : 12.9 kb/s
Count of elements                        : 988
Stream size                              : 10.5 MiB (0%)
Language                                 : English
Default                                  : No
Forced                                   : No

Menu
00:00:00.000                             : en:Chapter 01
00:10:02.500                             : en:Chapter 02
00:16:57.500                             : en:Chapter 03
00:25:02.458                             : en:Chapter 04
00:40:19.083                             : en:Chapter 05
00:45:17.083                             : en:Chapter 06
00:53:31.500                             : en:Chapter 07
01:08:04.500                             : en:Chapter 08
01:19:55.083                             : en:Chapter 09
01:35:47.083                             : en:Chapter 10
01:48:07.083                             : en:Chapter 11
02:00:21.083                             : en:Chapter 12




                                                                                                                                                                                                        



777f8f51011c52d5c4ce3156ebeaffde.zip (50.87 KB, 下载次数: 0)

回复

使用道具 举报

您需要登录后才可以回帖 登录 | 立即注册

本版积分规则

5n电影网  

本网站所有资源来自网络,如无意中侵犯了您的权益,请发邮件至 [email protected],立即清除相关链接

GMT+8, 2020-8-3 22:53 , Processed in 0.119470 second(s), 30 queries .

Powered by Discuz! X3.2

© 2001-2013 Comsenz Inc.

快速回复 返回顶部 返回列表