请选择 进入手机版 | 继续访问电脑版

5n电影网

 找回密码
 立即注册

芭芭雅嘎:林中恶魔 Baba.Yaga.Terror.of.the.Dark.Forest.2020.720p.BluRa...

[复制链接]
电影天堂 发表于 2020-8-23 10:14:58 | 显示全部楼层 |阅读模式
帖子完整标题:芭芭雅嘎:林中恶魔 Baba.Yaga.Terror.of.the.Dark.Forest.2020.720p.BluRay.x264-YOL0W 6.60GB




◎译  名 芭芭雅嘎:林中恶魔/Baba Yaga: Terror of the Dark Forest/Yaga: Koshmar temnogo lesa/芭芭雅嘎
◎片  名 Яга. Кошмар тёмного леса
◎年  代 2020
◎产  地 俄罗斯
◎类  别 恐怖
◎语  言 俄语
◎上映日期 2020-02-27(俄罗斯)
◎IMDb评分  4.7/10 from 575 users
◎片  长 113分钟
◎导  演 Svyatoslav Podgaevskiy
◎编  剧 纳塔莉亚·杜波瓦亚 Natalya Dubovaya / 伊凡·卡普托诺夫 Ivan Kapitonov / Svyatoslav Podgaevskiy
◎主  演 玛丽安娜·斯皮瓦克 Maryana Spivak
       斯薇坦娜·乌斯蒂诺娃 Svetlana Ustinova
       阿列克谢·罗津 Aleksey Rozin
       奥列格·楚古诺夫 Oleg Chugunov
       伊格·克里普诺夫 Igor Khripunov
       玛尔塔·蒂莫菲娃 Marta Timofeeva
       尤莉娅·亚历山德罗娃 Yuliya Aleksandrova
       德尼斯·什韦多夫 Denis Shvedov

◎标  签 恐怖 | 俄罗斯 | 奇幻 | 民间传说 | 巫婆 | 俄罗斯电影 | 传说 | 2019

◎简  介

  这个年轻的家庭搬到市郊的一个新公寓,为他们刚出生的女儿雇了一个保姆。在得到信任后,晚上的保姆吓坏了婴儿和长子埃戈尔,后者正试图告诉父母保姆的奇怪行为,但他们不相信他。为了让父亲冷静,他安装了监控摄像头,但一切正常,没有发现任何可疑之处。一旦埃戈尔回家,他就找不到保姆或小妹妹。但家长们正处于一种奇怪的恍惚状态,不记得他们有一个女儿。
  
  令人惊讶的是,她带着孩子,所有的玩具和东西都不见了,好像她以前从未来过这里。埃戈尔和他的朋友们去寻找,相信保姆实际上是一个古老的恶魔,俗称雅加。如果他们不能应付,他们的父母也会忘记他们。
Video
ID                                       : 1
Format                                   : AVC
Format/Info                              : Advanced Video Codec
Format settings                          : CABAC / 8 Ref Frames
Format settings, CABAC                   : Yes
Format settings, Reference frames        : 8 frames
Codec ID                                 : V_MPEG4/ISO/AVC
Duration                                 : 1 h 36 min
Bit rate                                 : 8 470 kb/s
Width                                    : 1 280 pixels
Height                                   : 536 pixels
Display aspect ratio                     : 2.40:1
Frame rate mode                          : Constant
Frame rate                               : 23.976 (24000/1001/189150) FPS
Color space                              : YUV
Chroma subsampling                       : 4:2:0
Bit depth                                : 8 bits
Scan type                                : Progressive
Bits/(Pixel*Frame)                       : 0.515
Stream size                              : 5.72 GiB (87%)
Writing library                          : x264 core 161 r3018 db0d417
Encoding settings                        : cabac=1 / ref=8 / deblock=1:-3:-3 / analyse=0x3:0x133 / me=umh / subme=9 / psy=1 / psy_rd=1.00:0.00 / mixed_ref=1 / me_range=24 / chroma_me=1 / trellis=2 / 8x8dct=1 / cqm=0 / deadzone=21,11 / fast_pskip=0 / chroma_qp_offset=-2 / threads=17 / lookahead_threads=2 / sliced_threads=0 / nr=0 / decimate=1 / interlaced=0 / bluray_compat=0 / constrained_intra=0 / bframes=8 / b_pyramid=2 / b_adapt=2 / b_bias=0 / direct=3 / weightb=1 / open_gop=0 / weightp=2 / keyint=250 / keyint_min=23 / scenecut=40 / intra_refresh=0 / rc=crf / mbtree=0 / crf=14.5 / qcomp=0.60 / qpmin=0 / qpmax=69 / qpstep=4 / ip_ratio=1.40 / pb_ratio=1.30 / aq=3:0.80
Default                                  : Yes
Forced                                   : No
Color range                              : Limited
Matrix coefficients                      : BT.709

Audio #1
ID                                       : 2
Format                                   : AC-3
Format/Info                              : Audio Coding 3
Commercial name                          : Dolby Digital
Codec ID                                 : A_AC3
Duration                                 : 1 h 36 min
Bit rate mode                            : Constant
Bit rate                                 : 640 kb/s
Channel(s)                               : 6 channels
Channel layout                           : L R C LFE Ls Rs
Sampling rate                            : 48.0 kHz
Frame rate                               : 31.250 FPS (1536 SPF)
Compression mode                         : Lossy
Stream size                              : 443 MiB (7%)
Title                                    : Russian
Language                                 : Russian
Service kind                             : Complete Main
Default                                  : Yes
Forced                                   : No

Audio #2
ID                                       : 3
Format                                   : AC-3
Format/Info                              : Audio Coding 3
Commercial name                          : Dolby Digital
Codec ID                                 : A_AC3
Duration                                 : 1 h 36 min
Bit rate mode                            : Constant
Bit rate                                 : 640 kb/s
Channel(s)                               : 6 channels
Channel layout                           : L R C LFE Ls Rs
Sampling rate                            : 48.0 kHz
Frame rate                               : 31.250 FPS (1536 SPF)
Compression mode                         : Lossy
Stream size                              : 443 MiB (7%)
Title                                    : English Dub
Language                                 : English
Service kind                             : Complete Main
Default                                  : No
Forced                                   : No

Text #1
ID                                       : 4
Format                                   : UTF-8
Codec ID                                 : S_TEXT/UTF8
Codec ID/Info                            : UTF-8 Plain Text
Duration                                 : 1 h 32 min
Bit rate                                 : 27 b/s
Count of elements                        : 651
Stream size                              : 18.3 KiB (0%)
Title                                    : English Forced
Language                                 : English
Default                                  : Yes
Forced                                   : Yes

Text #2
ID                                       : 5
ID in the original source medium         : 4608 (0x1200)
Format                                   : PGS
Muxing mode                              : zlib
Codec ID                                 : S_HDMV/PGS
Codec ID/Info                            : Picture based subtitle format used on BDs/HD-DVDs
Duration                                 : 1 h 32 min
Bit rate                                 : 21.9 kb/s
Count of elements                        : 2041
Stream size                              : 14.6 MiB (0%)
Language                                 : English
Default                                  : No
Forced                                   : No
Original source medium                   : Blu-ray

Text #3
ID                                       : 6
ID in the original source medium         : 4609 (0x1201)
Format                                   : PGS
Muxing mode                              : zlib
Codec ID                                 : S_HDMV/PGS
Codec ID/Info                            : Picture based subtitle format used on BDs/HD-DVDs
Duration                                 : 1 h 32 min
Bit rate                                 : 15.0 kb/s
Count of elements                        : 1165
Stream size                              : 9.91 MiB (0%)
Language                                 : English
Default                                  : No
Forced                                   : No
Original source medium                   : Blu-ray

Menu
00:00:00.000                             : en:Chapter 01
00:08:50.363                             : en:Chapter 02
00:16:29.614                             : en:Chapter 03
00:23:31.952                             : en:Chapter 04
00:31:06.823                             : en:Chapter 05
00:39:26.781                             : en:Chapter 06
00:49:05.109                             : en:Chapter 07
00:56:06.822                             : en:Chapter 08
01:03:21.881                             : en:Chapter 09
01:13:25.192                             : en:Chapter 10
01:21:45.609                             : en:Chapter 11
01:33:01.534                             : en:Chapter 12




         
a562cea56e0dfb62fbae022e3c5cd7d3.zip (33.76 KB, 下载次数: 0)

回复

使用道具 举报

您需要登录后才可以回帖 登录 | 立即注册

本版积分规则

5n电影网  

本网站所有资源来自网络,如无意中侵犯了您的权益,请发邮件至 [email protected],立即清除相关链接

GMT+8, 2020-9-25 04:50 , Processed in 0.135453 second(s), 30 queries .

Powered by Discuz! X3.2

© 2001-2013 Comsenz Inc.

快速回复 返回顶部 返回列表