请选择 进入手机版 | 继续访问电脑版

5n电影网

 找回密码
 立即注册

侠盗/重装救援:全境猎杀 Rogue.2020.720p.BluRay.x264-WUTANG 6.71GB

[复制链接]
电影下载 发表于 2020-8-23 10:14:58 | 显示全部楼层 |阅读模式
帖子完整标题:侠盗/重装救援:全境猎杀 Rogue.2020.720p.BluRay.x264-WUTANG 6.71GB




◎译  名 侠盗/重装救援:全境猎杀(台)
◎片  名 Rogue
◎年  代 2020
◎产  地 英国,南非
◎类  别 动作 / 战争
◎语  言 英语
◎上映日期 2020-08-28(美国)
◎导  演 迈克尔·巴塞特 Michael J. Bassett
◎编  剧 迈克尔·巴塞特 Michael J. Bassett
◎主  演 梅根·福克斯 Megan Fox
       杰西卡·萨顿 Jessica Sutton
       菲利普·文切斯特 Philip Winchester
       李-安妮·莱本伯格 Lee-Anne Liebenberg
       布兰登·奥雷 Brandon Auret
       格雷格·克列克 Greg Kriek
       亚当·迪康 Adam Deacon
       塔梅尔·伯贾克 Tamer Burjaq
       肯尼思·霍 Kenneth Fok

◎标  签 动作 | 2020 | 美国 | 线上 | 英国 | 等评分 | 电影 | 战争

◎简  介

  讲述梅根饰演角色带领的一支雇佣兵,原本要去非洲某地营救人质,但不幸中了埋伏。在逃亡过程中,雇佣兵小队不仅要防人类的子弹,还要避开狮子的攻击。
Video
ID                                       : 1
Format                                   : AVC
Format/Info                              : Advanced Video Codec
Format settings                          : CABAC / 8 Ref Frames
Format settings, CABAC                   : Yes
Format settings, Reference frames        : 8 frames
Codec ID                                 : V_MPEG4/ISO/AVC
Duration                                 : 1 h 45 min
Bit rate                                 : 8 162 kb/s
Width                                    : 1 280 pixels
Height                                   : 534 pixels
Display aspect ratio                     : 2.40:1
Frame rate mode                          : Constant
Frame rate                               : 23.976 (24000/1001/189150) FPS
Color space                              : YUV
Chroma subsampling                       : 4:2:0
Bit depth                                : 8 bits
Scan type                                : Progressive
Bits/(Pixel*Frame)                       : 0.498
Stream size                              : 6.04 GiB (90%)
Writing library                          : x264 core 161 r3018 db0d417
Encoding settings                        : cabac=1 / ref=8 / deblock=1:-3:-3 / analyse=0x3:0x133 / me=umh / subme=9 / psy=1 / psy_rd=1.00:0.00 / mixed_ref=1 / me_range=24 / chroma_me=1 / trellis=2 / 8x8dct=1 / cqm=0 / deadzone=21,11 / fast_pskip=0 / chroma_qp_offset=-2 / threads=17 / lookahead_threads=2 / sliced_threads=0 / nr=0 / decimate=1 / interlaced=0 / bluray_compat=0 / constrained_intra=0 / bframes=8 / b_pyramid=2 / b_adapt=2 / b_bias=0 / direct=3 / weightb=1 / open_gop=0 / weightp=2 / keyint=250 / keyint_min=23 / scenecut=40 / intra_refresh=0 / rc=crf / mbtree=0 / crf=15.2 / qcomp=0.60 / qpmin=0 / qpmax=69 / qpstep=4 / ip_ratio=1.40 / pb_ratio=1.30 / aq=3:0.80
Default                                  : Yes
Forced                                   : No
Color range                              : Limited
Matrix coefficients                      : BT.709

Audio #1
ID                                       : 2
Format                                   : AC-3
Format/Info                              : Audio Coding 3
Commercial name                          : Dolby Digital
Codec ID                                 : A_AC3
Duration                                 : 1 h 45 min
Bit rate mode                            : Constant
Bit rate                                 : 640 kb/s
Channel(s)                               : 6 channels
Channel layout                           : L R C LFE Ls Rs
Sampling rate                            : 48.0 kHz
Frame rate                               : 31.250 FPS (1536 SPF)
Compression mode                         : Lossy
Stream size                              : 485 MiB (7%)
Title                                    : English
Language                                 : English
Service kind                             : Complete Main
Default                                  : Yes
Forced                                   : No

Audio #2
ID                                       : 3
Format                                   : AAC LC
Format/Info                              : Advanced Audio Codec Low Complexity
Codec ID                                 : A_AAC-2
Duration                                 : 1 h 45 min
Bit rate                                 : 110 kb/s
Channel(s)                               : 2 channels
Channel layout                           : L R
Sampling rate                            : 48.0 kHz
Frame rate                               : 46.875 FPS (1024 SPF)
Compression mode                         : Lossy
Delay relative to video                  : 9 ms
Stream size                              : 83.6 MiB (1%)
Title                                    : Director\'s Commentary
Language                                 : English
Default                                  : No
Forced                                   : No

Audio #3
ID                                       : 4
Format                                   : AAC LC
Format/Info                              : Advanced Audio Codec Low Complexity
Codec ID                                 : A_AAC-2
Duration                                 : 1 h 45 min
Bit rate                                 : 107 kb/s
Channel(s)                               : 2 channels
Channel layout                           : L R
Sampling rate                            : 48.0 kHz
Frame rate                               : 46.875 FPS (1024 SPF)
Compression mode                         : Lossy
Delay relative to video                  : 9 ms
Stream size                              : 80.7 MiB (1%)
Title                                    : Commentary with Cowriter-Director-Producer MJ Bassett, Cowriter-Actor Isabel Bassett and Actor Philip Winchester
Language                                 : English
Default                                  : No
Forced                                   : No

Text #1
ID                                       : 5
ID in the original source medium         : 4608 (0x1200)
Format                                   : PGS
Muxing mode                              : zlib
Codec ID                                 : S_HDMV/PGS
Codec ID/Info                            : Picture based subtitle format used on BDs/HD-DVDs
Duration                                 : 1 h 38 min
Bit rate                                 : 38.2 kb/s
Count of elements                        : 3190
Stream size                              : 27.0 MiB (0%)
Language                                 : English
Default                                  : No
Forced                                   : No
Original source medium                   : Blu-ray

Text #2
ID                                       : 6
ID in the original source medium         : 4609 (0x1201)
Format                                   : PGS
Muxing mode                              : zlib
Codec ID                                 : S_HDMV/PGS
Codec ID/Info                            : Picture based subtitle format used on BDs/HD-DVDs
Duration                                 : 1 h 44 min
Bit rate                                 : 28.2 kb/s
Count of elements                        : 2448
Stream size                              : 21.0 MiB (0%)
Language                                 : Spanish
Default                                  : No
Forced                                   : No
Original source medium                   : Blu-ray

Text #3
ID                                       : 7
ID in the original source medium         : 4610 (0x1202)
Format                                   : PGS
Muxing mode                              : zlib
Codec ID                                 : S_HDMV/PGS
Codec ID/Info                            : Picture based subtitle format used on BDs/HD-DVDs
Duration                                 : 1 h 44 min
Bit rate                                 : 27.6 kb/s
Count of elements                        : 2488
Stream size                              : 20.6 MiB (0%)
Language                                 : Portuguese
Default                                  : No
Forced                                   : No
Original source medium                   : Blu-ray

Menu
00:00:00.000                             : en:Chapter 01
00:04:05.495                             : en:Chapter 02
00:10:55.446                             : en:Chapter 03
00:22:56.125                             : en:Chapter 04
00:29:20.884                             : en:Chapter 05
00:35:27.292                             : en:Chapter 06
00:42:17.785                             : en:Chapter 07
00:48:10.096                             : en:Chapter 08
00:55:41.129                             : en:Chapter 09
00:59:56.510                             : en:Chapter 10
01:06:03.168                             : en:Chapter 11
01:11:49.305                             : en:Chapter 12
01:19:04.406                             : en:Chapter 13
01:21:53.450                             : en:Chapter 14
01:29:26.903                             : en:Chapter 15
01:34:17.527                             : en:Chapter 16






4868a8e2a8770a518789c4f74fab3ba6.zip (35.01 KB, 下载次数: 0)

回复

使用道具 举报

您需要登录后才可以回帖 登录 | 立即注册

本版积分规则

5n电影网  

本网站所有资源来自网络,如无意中侵犯了您的权益,请发邮件至 [email protected],立即清除相关链接

GMT+8, 2020-9-25 04:47 , Processed in 0.126684 second(s), 30 queries .

Powered by Discuz! X3.2

© 2001-2013 Comsenz Inc.

快速回复 返回顶部 返回列表