请选择 进入手机版 | 继续访问电脑版

5n电影网

 找回密码
 立即注册

奇兵勇士/勇士奇兵 Doc.Savage.The.Man.of.Bronze.1975.720p.BluRay.x264-...

[复制链接]
高清bt 发表于 2020-8-23 10:14:58 | 显示全部楼层 |阅读模式
-->
帖子完整标题:奇兵勇士/勇士奇兵 Doc.Savage.The.Man.of.Bronze.1975.720p.BluRay.x264-SPECTACLE 5.05GB




◎译  名 奇兵勇士/勇士奇兵
◎片  名 Doc Savage: The Man of Bronze
◎年  代 1975
◎产  地 美国
◎类  别 冒险
◎语  言 英语
◎上映日期 1975-06
◎IMDb评分  5.7/10 from 1701 users
◎片  长 112 分钟
◎导  演 迈克尔·安德森 Michael Anderson
◎编  剧 乔·莫海姆 Joe Morhaim / 乔治·帕尔 George Pal / 莱斯特·登特 Lester Dent
◎主  演 朗·伊莱 Ron Ely
       Robert Tessier
       格雷丝·斯塔福德 Grace Stafford
       保罗·韦克斯勒 Paul Wexler
       威廉姆·拉金 William Lucking
       小豪尔赫·塞韦拉 Jorge Cervera Jr.
       Fritz Ford
       Dar Robinson
       卡洛斯·里瓦斯 Carlos Rivas
       迈克尔·贝里曼 Michael Berryman
       保罗·格里森 Paul Gleason
       维克托·米兰 Victor Millan
       帕梅拉·亨斯利 Pamela Hensley
       阿尔贝托·莫林 Alberto Morin
       保罗·费斯 Paul Frees
       Federico Roberto
       Eldon Quick
       迈克尔米勒 Michael Miller

◎标  签 美国 | 动作 | 冒险 | 哈里森福特 | 美国电影 | 经典 | 探险 | 电影

◎简  介

  In the Fabulous Thirties, Doc Savage and his five Amazing Adventurers are sucked into the mystery of Doc's father disappearing in the wilds of South America. The maniacal Captain Seas tries to thwart them at every turn as they travel to the country of Hidalgo to investigate Doc's father's death and uncover a vast horde of Incan gold.
Video
ID                                       : 1
Format                                   : AVC
Format/Info                              : Advanced Video Codec
Format settings                          : CABAC / 9 Ref Frames
Format settings, CABAC                   : Yes
Format settings, Reference frames        : 9 frames
Codec ID                                 : V_MPEG4/ISO/AVC
Duration                                 : 1 h 40 min
Bit rate                                 : 6 246 kb/s
Width                                    : 1 280 pixels
Height                                   : 720 pixels
Display aspect ratio                     : 16:9
Frame rate mode                          : Constant
Frame rate                               : 23.976 (24000/1001/189150) FPS
Color space                              : YUV
Chroma subsampling                       : 4:2:0
Bit depth                                : 8 bits
Scan type                                : Progressive
Bits/(Pixel*Frame)                       : 0.283
Stream size                              : 4.38 GiB (87%)
Writing library                          : x264 core 161 r3018 db0d417
Encoding settings                        : cabac=1 / ref=9 / deblock=1:-3:-3 / analyse=0x3:0x133 / me=umh / subme=10 / psy=1 / psy_rd=1.00:0.00 / mixed_ref=1 / me_range=32 / chroma_me=1 / trellis=2 / 8x8dct=1 / cqm=0 / deadzone=21,11 / fast_pskip=0 / chroma_qp_offset=-2 / threads=22 / lookahead_threads=3 / sliced_threads=0 / nr=0 / decimate=1 / interlaced=0 / bluray_compat=0 / constrained_intra=0 / bframes=8 / b_pyramid=2 / b_adapt=2 / b_bias=0 / direct=3 / weightb=1 / open_gop=0 / weightp=2 / keyint=250 / keyint_min=23 / scenecut=40 / intra_refresh=0 / rc_lookahead=60 / rc=crf / mbtree=0 / crf=17.0 / qcomp=0.60 / qpmin=0 / qpmax=69 / qpstep=4 / vbv_maxrate=50000 / vbv_bufsize=62500 / crf_max=0.0 / nal_hrd=none / filler=0 / ip_ratio=1.40 / pb_ratio=1.30 / aq=3:0.70
Default                                  : Yes
Forced                                   : No

Audio
ID                                       : 2
Format                                   : FLAC
Format/Info                              : Free Lossless Audio Codec
Codec ID                                 : A_FLAC
Duration                                 : 1 h 40 min
Bit rate mode                            : Variable
Bit rate                                 : 921 kb/s
Channel(s)                               : 2 channels
Channel layout                           : L R
Sampling rate                            : 48.0 kHz
Frame rate                               : 11.719 FPS (4096 SPF)
Bit depth                                : 24 bits
Compression mode                         : Lossless
Stream size                              : 661 MiB (13%)
Title                                    : Flac 2.0
Writing library                          : libFLAC 1.2.1 (UTC 2007-09-17)
Language                                 : English
Default                                  : Yes
Forced                                   : No

Text #1
ID                                       : 3
Format                                   : UTF-8
Codec ID                                 : S_TEXT/UTF8
Codec ID/Info                            : UTF-8 Plain Text
Duration                                 : 1 h 39 min
Bit rate                                 : 38 b/s
Count of elements                        : 1171
Stream size                              : 28.2 KiB (0%)
Title                                    : Full SRT
Language                                 : English
Default                                  : No
Forced                                   : No

Text #2
ID                                       : 4
Format                                   : UTF-8
Codec ID                                 : S_TEXT/UTF8
Codec ID/Info                            : UTF-8 Plain Text
Duration                                 : 1 h 39 min
Bit rate                                 : 45 b/s
Count of elements                        : 1407
Stream size                              : 33.2 KiB (0%)
Title                                    : SDH SRT
Language                                 : English
Default                                  : No
Forced                                   : No

Text #3
ID                                       : 5
Format                                   : PGS
Muxing mode                              : zlib
Codec ID                                 : S_HDMV/PGS
Codec ID/Info                            : Picture based subtitle format used on BDs/HD-DVDs
Duration                                 : 1 h 39 min
Bit rate                                 : 65.0 kb/s
Count of elements                        : 2814
Stream size                              : 46.5 MiB (1%)
Title                                    : English SDH
Language                                 : English
Default                                  : No
Forced                                   : No

Menu
00:00:00.000                             : en:Chapter 01
00:02:09.004                             : en:Chapter 02
00:04:19.342                             : en:Chapter 03
00:10:30.129                             : en:Chapter 04
00:15:54.078                             : en:Chapter 05
00:22:56.959                             : en:Chapter 06
00:25:08.632                             : en:Chapter 07
00:26:21.872                             : en:Chapter 08
00:31:47.864                             : en:Chapter 09
00:34:54.843                             : en:Chapter 10
00:38:49.160                             : en:Chapter 11
00:43:26.020                             : en:Chapter 12
00:50:29.610                             : en:Chapter 13
00:55:12.643                             : en:Chapter 14
01:01:14.421                             : en:Chapter 15
01:07:10.985                             : en:Chapter 16
01:12:40.856                             : en:Chapter 17
01:15:56.886                             : en:Chapter 18
01:20:30.784                             : en:Chapter 19
01:27:09.891                             : en:Chapter 20
01:32:27.250                             : en:Chapter 21
01:38:27.652                             : en:Chapter 22




                                                                                                                                                                                                        


51c1e2d2ca342d3591d87238f972a4ac.zip (26.8 KB, 下载次数: 0)

回复

使用道具 举报

您需要登录后才可以回帖 登录 | 立即注册

本版积分规则

5n电影网  

本网站所有资源来自网络,如无意中侵犯了您的权益,请发邮件至 [email protected],立即清除相关链接

GMT+8, 2020-9-25 05:59 , Processed in 0.116378 second(s), 30 queries .

Powered by Discuz! X3.2

© 2001-2013 Comsenz Inc.

快速回复 返回顶部 返回列表