请选择 进入手机版 | 继续访问电脑版

5n电影网

 找回密码
 立即注册

孤立 Cut.Off.2018.720p.BluRay.x264-WUTANG 8.59GB

[复制链接]
电影首发 发表于 2020-8-25 10:47:14 | 显示全部楼层 |阅读模式
帖子完整标题:孤立 Cut.Off.2018.720p.BluRay.x264-WUTANG 8.59GB




◎译  名 孤立/Cut Off/抽尸剥茧(台)
◎片  名 Abgeschnitten
◎年  代 2018
◎产  地 德国
◎类  别 悬疑 / 惊悚 / 犯罪
◎语  言 德语
◎上映日期 2018-10-11(德国)
◎IMDb评分  6.6/10 from 3216 users
◎片  长 132分钟
◎导  演 克里斯蒂安·阿瓦特 Christian Alvart
◎编  剧 克里斯蒂安·阿瓦特 Christian Alvart
◎主  演 莫里兹·布雷多 Moritz Bleibtreu
       贾斯娜·弗里茨·鲍尔 Jasna Fritzi Bauer
       拉斯·艾丁格 Lars Eidinger
       法赫里·亚迪姆 Fahri Yardim
       克里斯蒂安·库钦布奇 Christian Kuchenbuch
       尼尔斯-布鲁诺·施密特 Niels-Bruno Schmidt
       本·默肖 Ben Münchow
       简·比洛 Jan Bülow
       Jana Klinge
       西尔克·戈尔茨 Silke Geertz
       Christopher Kohn
       亚历山大·雅辛 Alexander Yassin
       恩诺·海瑟 Enno Hesse

◎标  签 悬疑 | 犯罪 | 惊悚 | 德国 | 解剖 | 恐怖 | 德國 | 2018

◎简  介

  法医保罗自以为是的正义让他女儿惨遭绑架,他唯一的希望是困在无人岛上的漫画家琳达,她必须尽速代他执行一连串解剖且找到隐藏线索,才得以拯救保罗的女儿并揪出凶手。
Video
ID                                       : 1
Format                                   : AVC
Format/Info                              : Advanced Video Codec
Format settings                          : CABAC / 8 Ref Frames
Format settings, CABAC                   : Yes
Format settings, Reference frames        : 8 frames
Codec ID                                 : V_MPEG4/ISO/AVC
Duration                                 : 2 h 11 min
Bit rate                                 : 8 019 kb/s
Width                                    : 1 280 pixels
Height                                   : 536 pixels
Display aspect ratio                     : 2.40:1
Frame rate mode                          : Constant
Frame rate                               : 23.976 (24000/1001/189150) FPS
Color space                              : YUV
Chroma subsampling                       : 4:2:0
Bit depth                                : 8 bits
Scan type                                : Progressive
Bits/(Pixel*Frame)                       : 0.487
Stream size                              : 7.38 GiB (86%)
Writing library                          : x264 core 161 r3018 db0d417
Encoding settings                        : cabac=1 / ref=8 / deblock=1:-3:-3 / analyse=0x3:0x133 / me=umh / subme=9 / psy=1 / psy_rd=1.00:0.00 / mixed_ref=1 / me_range=24 / chroma_me=1 / trellis=2 / 8x8dct=1 / cqm=0 / deadzone=21,11 / fast_pskip=0 / chroma_qp_offset=-2 / threads=17 / lookahead_threads=2 / sliced_threads=0 / nr=0 / decimate=1 / interlaced=0 / bluray_compat=0 / constrained_intra=0 / bframes=8 / b_pyramid=2 / b_adapt=2 / b_bias=0 / direct=3 / weightb=1 / open_gop=0 / weightp=2 / keyint=250 / keyint_min=23 / scenecut=40 / intra_refresh=0 / rc=crf / mbtree=0 / crf=14.6 / qcomp=0.60 / qpmin=0 / qpmax=69 / qpstep=4 / ip_ratio=1.40 / pb_ratio=1.30 / aq=3:0.80
Default                                  : Yes
Forced                                   : No
Color range                              : Limited
Matrix coefficients                      : BT.709

Audio #1
ID                                       : 2
Format                                   : AC-3
Format/Info                              : Audio Coding 3
Commercial name                          : Dolby Digital
Codec ID                                 : A_AC3
Duration                                 : 2 h 11 min
Bit rate mode                            : Constant
Bit rate                                 : 640 kb/s
Channel(s)                               : 6 channels
Channel layout                           : L R C LFE Ls Rs
Sampling rate                            : 48.0 kHz
Frame rate                               : 31.250 FPS (1536 SPF)
Compression mode                         : Lossy
Stream size                              : 603 MiB (7%)
Title                                    : German
Language                                 : German
Service kind                             : Complete Main
Default                                  : Yes
Forced                                   : No

Audio #2
ID                                       : 3
Format                                   : AC-3
Format/Info                              : Audio Coding 3
Commercial name                          : Dolby Digital
Codec ID                                 : A_AC3
Duration                                 : 2 h 11 min
Bit rate mode                            : Constant
Bit rate                                 : 640 kb/s
Channel(s)                               : 6 channels
Channel layout                           : L R C LFE Ls Rs
Sampling rate                            : 48.0 kHz
Frame rate                               : 31.250 FPS (1536 SPF)
Compression mode                         : Lossy
Stream size                              : 603 MiB (7%)
Title                                    : English Dub
Language                                 : English
Service kind                             : Complete Main
Default                                  : No
Forced                                   : No

Text #1
ID                                       : 4
Format                                   : UTF-8
Codec ID                                 : S_TEXT/UTF8
Codec ID/Info                            : UTF-8 Plain Text
Duration                                 : 2 h 4 min
Bit rate                                 : 48 b/s
Count of elements                        : 1283
Stream size                              : 44.1 KiB (0%)
Title                                    : English Forced
Language                                 : English
Default                                  : Yes
Forced                                   : Yes

Text #2
ID                                       : 5
Format                                   : UTF-8
Codec ID                                 : S_TEXT/UTF8
Codec ID/Info                            : UTF-8 Plain Text
Duration                                 : 1 h 57 min
Bit rate                                 : 0 b/s
Count of elements                        : 10
Stream size                              : 173 Bytes (0%)
Title                                    : English Forced for English Dub
Language                                 : English
Default                                  : No
Forced                                   : No

Text #3
ID                                       : 6
ID in the original source medium         : 4608 (0x1200)
Format                                   : PGS
Muxing mode                              : zlib
Codec ID                                 : S_HDMV/PGS
Codec ID/Info                            : Picture based subtitle format used on BDs/HD-DVDs
Duration                                 : 1 h 57 min
Bit rate                                 : 153 b/s
Count of elements                        : 20
Stream size                              : 132 KiB (0%)
Language                                 : English
Default                                  : No
Forced                                   : No
Original source medium                   : Blu-ray

Text #4
ID                                       : 7
ID in the original source medium         : 4609 (0x1201)
Format                                   : PGS
Muxing mode                              : zlib
Codec ID                                 : S_HDMV/PGS
Codec ID/Info                            : Picture based subtitle format used on BDs/HD-DVDs
Duration                                 : 2 h 4 min
Bit rate                                 : 27.7 kb/s
Count of elements                        : 2566
Stream size                              : 24.6 MiB (0%)
Language                                 : English
Default                                  : No
Forced                                   : No
Original source medium                   : Blu-ray

Text #5
ID                                       : 8
ID in the original source medium         : 4610 (0x1202)
Format                                   : PGS
Muxing mode                              : zlib
Codec ID                                 : S_HDMV/PGS
Codec ID/Info                            : Picture based subtitle format used on BDs/HD-DVDs
Duration                                 : 2 h 7 min
Bit rate                                 : 39.4 kb/s
Count of elements                        : 2746
Stream size                              : 36.1 MiB (0%)
Language                                 : English
Default                                  : No
Forced                                   : No
Original source medium                   : Blu-ray

Menu
00:00:00.000                             : en:Chapter 01
00:03:02.349                             : en:Chapter 02
00:10:48.690                             : en:Chapter 03
00:14:57.188                             : en:Chapter 04
00:24:41.355                             : en:Chapter 05
00:34:00.747                             : en:Chapter 06
00:42:31.007                             : en:Chapter 07
00:54:50.496                             : en:Chapter 08
01:01:07.789                             : en:Chapter 09
01:11:17.315                             : en:Chapter 10
01:23:09.860                             : en:Chapter 11
01:35:31.851                             : en:Chapter 12
01:41:16.612                             : en:Chapter 13
01:49:10.252                             : en:Chapter 14
01:57:58.822                             : en:Chapter 15
02:07:42.947                             : en:Chapter 16




                                                                                                                                                                                                        
                                                                                                                                                                                                                                                                                                                                                                                                                                                                                    
414a1e2a0d2e1ac2e1a34480a0dfd81b.zip (44.02 KB, 下载次数: 0)

回复

使用道具 举报

您需要登录后才可以回帖 登录 | 立即注册

本版积分规则

5n电影网  

本网站所有资源来自网络,如无意中侵犯了您的权益,请发邮件至 [email protected],立即清除相关链接

GMT+8, 2020-9-25 04:13 , Processed in 0.156412 second(s), 30 queries .

Powered by Discuz! X3.2

© 2001-2013 Comsenz Inc.

快速回复 返回顶部 返回列表