请选择 进入手机版 | 继续访问电脑版

5n电影网

 找回密码
 立即注册

鼹鼠 El.Topo.1970.FS.REMASTERED.720p.BluRay.X264-AMIABLE 5.25GB

[复制链接]
电影首发 发表于 2020-8-25 10:47:14 | 显示全部楼层 |阅读模式
帖子完整标题:鼹鼠 El.Topo.1970.FS.REMASTERED.720p.BluRay.X264-AMIABLE 5.25GB




◎译  名 鼹鼠/The Gopher/The Mole/遁地鼠
◎片  名 El topo
◎年  代 1970
◎产  地 墨西哥
◎类  别 西部 / 奇幻 / 冒险
◎语  言 西班牙语
◎上映日期 1971-04-15(墨西哥)
◎IMDb评分  7.5/10 from 24718 users
◎片  长 125分钟
◎导  演 亚历桑德罗·佐杜洛夫斯基 Alejandro Jodorowsky
◎编  剧 亚历桑德罗·佐杜洛夫斯基 Alejandro Jodorowsky
◎主  演 亚历桑德罗·佐杜洛夫斯基 Alejandro Jodorowsky
       阿方索·阿雷奥 Alfonso Arau
       Mara Lorenzio
       布隆蒂斯·佐杜洛夫斯基 Brontis Jodorowsky
       Paula Romo

◎标  签 墨西哥 | cult | 亚历桑德罗·佐杜洛夫斯基 | AlejandroJodorowsky | 墨西哥电影 | 1970s | 奇幻 | Alejandro_Jodorowsky

◎简  介

  神秘莫测、枪法绝伦的独行杀手“鼹鼠”(亚历桑德罗?佐杜洛夫斯基 Alejandro Jodorowsky 饰)和他年仅7岁、赤身裸体的儿子(布朗提斯?佐杜洛夫斯基 Brontis Jodorowsky 饰)骑马漫步在墨西哥炎热的沙漠之中。他们路过一个被匪徒“上校”及其爪牙血洗过的村庄,鼹鼠按照垂死村民提供的线索一路追踪,将上校一伙一网打尽。在此之后,他将儿子留在一座寺院,带着他解救的女人继续踏上旅途。女人向鼹鼠讲述了四大高手的传说,这个好胜心切的男人向四大高手发起挑战,他凭借高超的枪法和精巧的计谋一次次得逞,却也在这一过程中若有所悟。
  
  本片荣获1972年墨西哥金羊奖最佳摄影奖、1974年意大利阿索罗美术和美术家电影节评委会特别奖。
Video
ID                                       : 1
Format                                   : AVC
Format/Info                              : Advanced Video Codec
Format settings                          : CABAC / 11 Ref Frames
Format settings, CABAC                   : Yes
Format settings, Reference frames        : 11 frames
Codec ID                                 : V_MPEG4/ISO/AVC
Duration                                 : 2 h 4 min
Bit rate                                 : 4 953 kb/s
Width                                    : 990 pixels
Height                                   : 720 pixels
Display aspect ratio                     : 1.375
Frame rate mode                          : Constant
Frame rate                               : 23.976 (24000/1001/189150) FPS
Color space                              : YUV
Chroma subsampling                       : 4:2:0
Bit depth                                : 8 bits
Scan type                                : Progressive
Bits/(Pixel*Frame)                       : 0.290
Stream size                              : 4.31 GiB (82%)
Writing library                          : x264 core 161 r3018 db0d417
Encoding settings                        : cabac=1 / ref=11 / deblock=1:-3:-3 / analyse=0x3:0x133 / me=umh / subme=10 / psy=1 / psy_rd=1.10:0.00 / mixed_ref=1 / me_range=24 / chroma_me=1 / trellis=2 / 8x8dct=1 / cqm=0 / deadzone=21,11 / fast_pskip=0 / chroma_qp_offset=-2 / threads=22 / lookahead_threads=5 / sliced_threads=0 / nr=0 / decimate=0 / interlaced=0 / bluray_compat=0 / constrained_intra=0 / bframes=10 / b_pyramid=2 / b_adapt=2 / b_bias=0 / direct=3 / weightb=1 / open_gop=0 / weightp=2 / keyint=250 / keyint_min=23 / scenecut=40 / intra_refresh=0 / rc=crf / mbtree=0 / crf=18.3 / qcomp=0.60 / qpmin=0 / qpmax=69 / qpstep=4 / ip_ratio=1.30 / pb_ratio=1.20 / aq=3:0.70
Language                                 : English
Default                                  : Yes
Forced                                   : No
Color range                              : Limited
Matrix coefficients                      : BT.709

Audio #1
ID                                       : 2
Format                                   : AC-3
Format/Info                              : Audio Coding 3
Commercial name                          : Dolby Digital
Codec ID                                 : A_AC3
Duration                                 : 2 h 4 min
Bit rate mode                            : Constant
Bit rate                                 : 640 kb/s
Channel(s)                               : 6 channels
Channel layout                           : L R C LFE Ls Rs
Sampling rate                            : 48.0 kHz
Frame rate                               : 31.250 FPS (1536 SPF)
Compression mode                         : Lossy
Stream size                              : 570 MiB (11%)
Title                                    : AC-3 5.1
Language                                 : Spanish
Service kind                             : Complete Main
Default                                  : Yes
Forced                                   : No

Audio #2
ID                                       : 3
Format                                   : FLAC
Format/Info                              : Free Lossless Audio Codec
Codec ID                                 : A_FLAC
Duration                                 : 2 h 4 min
Bit rate mode                            : Variable
Bit rate                                 : 278 kb/s
Channel(s)                               : 1 channel
Channel layout                           : C
Sampling rate                            : 48.0 kHz
Frame rate                               : 11.719 FPS (4096 SPF)
Bit depth                                : 16 bits
Compression mode                         : Lossless
Stream size                              : 247 MiB (5%)
Title                                    : Original Audio
Writing library                          : libFLAC 1.2.1 (UTC 2007-09-17)
Language                                 : Spanish
Default                                  : No
Forced                                   : No

Audio #3
ID                                       : 4
Format                                   : AAC LC
Format/Info                              : Advanced Audio Codec Low Complexity
Codec ID                                 : A_AAC-2
Duration                                 : 2 h 4 min
Bit rate                                 : 117 kb/s
Channel(s)                               : 2 channels
Channel layout                           : L R
Sampling rate                            : 48.0 kHz
Frame rate                               : 46.875 FPS (1024 SPF)
Compression mode                         : Lossy
Delay relative to video                  : 9 ms
Stream size                              : 105 MiB (2%)
Title                                    : Commentary by Alejandro Jodorowsky
Language                                 : Spanish
Default                                  : No
Forced                                   : No

Text #1
ID                                       : 5
Format                                   : UTF-8
Codec ID                                 : S_TEXT/UTF8
Codec ID/Info                            : UTF-8 Plain Text
Duration                                 : 1 h 54 min
Bit rate                                 : 10 b/s
Count of elements                        : 318
Stream size                              : 9.03 KiB (0%)
Title                                    : Forced SRT
Language                                 : English
Default                                  : Yes
Forced                                   : Yes

Text #2
ID                                       : 6
Format                                   : PGS
Muxing mode                              : zlib
Codec ID                                 : S_HDMV/PGS
Codec ID/Info                            : Picture based subtitle format used on BDs/HD-DVDs
Duration                                 : 2 h 1 min
Bit rate                                 : 6 683 b/s
Count of elements                        : 640
Stream size                              : 5.80 MiB (0%)
Title                                    : Forced
Language                                 : English
Default                                  : No
Forced                                   : No

Text #3
ID                                       : 7
Format                                   : UTF-8
Codec ID                                 : S_TEXT/UTF8
Codec ID/Info                            : UTF-8 Plain Text
Duration                                 : 2 h 4 min
Bit rate                                 : 58 b/s
Count of elements                        : 1172
Stream size                              : 53.2 KiB (0%)
Title                                    : Commentary by Alejandro Jodorowsky SRT
Language                                 : English
Default                                  : No
Forced                                   : No

Text #4
ID                                       : 8
Format                                   : PGS
Muxing mode                              : zlib
Codec ID                                 : S_HDMV/PGS
Codec ID/Info                            : Picture based subtitle format used on BDs/HD-DVDs
Duration                                 : 2 h 4 min
Bit rate                                 : 37.3 kb/s
Count of elements                        : 2346
Stream size                              : 33.1 MiB (1%)
Title                                    : Commentary by Alejandro Jodorowsky
Language                                 : English
Default                                  : No
Forced                                   : No

Text #5
ID                                       : 9
Format                                   : PGS
Muxing mode                              : zlib
Codec ID                                 : S_HDMV/PGS
Codec ID/Info                            : Picture based subtitle format used on BDs/HD-DVDs
Duration                                 : 2 h 1 min
Bit rate                                 : 6 947 b/s
Count of elements                        : 646
Stream size                              : 6.03 MiB (0%)
Language                                 : French
Default                                  : No
Forced                                   : No

Text #6
ID                                       : 10
Format                                   : PGS
Muxing mode                              : zlib
Codec ID                                 : S_HDMV/PGS
Codec ID/Info                            : Picture based subtitle format used on BDs/HD-DVDs
Duration                                 : 2 h 4 min
Bit rate                                 : 37.5 kb/s
Count of elements                        : 2335
Stream size                              : 33.3 MiB (1%)
Title                                    : Commentary by Alejandro Jodorowsky
Language                                 : French
Default                                  : No
Forced                                   : No

Text #7
ID                                       : 11
Format                                   : PGS
Muxing mode                              : zlib
Codec ID                                 : S_HDMV/PGS
Codec ID/Info                            : Picture based subtitle format used on BDs/HD-DVDs
Duration                                 : 2 h 1 min
Bit rate                                 : 6 446 b/s
Count of elements                        : 588
Stream size                              : 5.60 MiB (0%)
Language                                 : Spanish
Default                                  : No
Forced                                   : No

Text #8
ID                                       : 12
Format                                   : PGS
Muxing mode                              : zlib
Codec ID                                 : S_HDMV/PGS
Codec ID/Info                            : Picture based subtitle format used on BDs/HD-DVDs
Duration                                 : 2 h 4 min
Bit rate                                 : 37.8 kb/s
Count of elements                        : 2370
Stream size                              : 33.5 MiB (1%)
Title                                    : Commentary by Alejandro Jodorowsky
Language                                 : Spanish
Default                                  : No
Forced                                   : No

Menu
00:00:00.000                             : :Chapter 00
00:14:43.215                             : :Chapter 01
00:19:16.321                             : :Chapter 02
00:26:49.482                             : :Chapter 03
00:34:40.369                             : :Chapter 04
00:47:30.305                             : :Chapter 05
00:57:42.250                             : :Chapter 06
01:06:31.654                             : :Chapter 07
01:16:53.942                             : :Chapter 08
01:28:31.931                             : :Chapter 09
01:39:34.593                             : :Chapter 10
01:43:11.935                             : :Chapter 11






d2e2ed2e2e779b71a983e4b223c73d7b.zip (27.34 KB, 下载次数: 0)

回复

使用道具 举报

您需要登录后才可以回帖 登录 | 立即注册

本版积分规则

5n电影网  

本网站所有资源来自网络,如无意中侵犯了您的权益,请发邮件至 [email protected],立即清除相关链接

GMT+8, 2020-9-25 03:58 , Processed in 0.149616 second(s), 30 queries .

Powered by Discuz! X3.2

© 2001-2013 Comsenz Inc.

快速回复 返回顶部 返回列表