请选择 进入手机版 | 继续访问电脑版

5n电影网

 找回密码
 立即注册

圣山 The.Holy.Mountain.1973.REMASTERED.720p.BluRay.X264-AMIABLE 8.51GB

[复制链接]
电影天堂 发表于 2020-8-25 10:47:14 | 显示全部楼层 |阅读模式
帖子完整标题:圣山 The.Holy.Mountain.1973.REMASTERED.720p.BluRay.X264-AMIABLE 8.51GB




◎译  名 圣山/The Holy Mountain/The Sacred Mountain
◎片  名 La monta?a sagrada
◎年  代 1973
◎产  地 墨西哥
◎类  别 奇幻 / 冒险
◎语  言 西班牙语,英语
◎上映日期 1973-05
◎IMDb评分  7.9/10 from 35310 users
◎片  长 114 分钟
◎导  演 亚历桑德罗·佐杜洛夫斯基 Alejandro Jodorowsky
◎编  剧 亚历桑德罗·佐杜洛夫斯基 Alejandro Jodorowsky
◎主  演 亚历桑德罗·佐杜洛夫斯基 Alejandro Jodorowsky
       Héctor Ortega
       理查德·鲁托夫斯基 Richard Rutowski
       Nicky Nichols
       Valerie Jodorowsky
       Burt Kleiner
       Adriana Page
       Horacio Salinas
       Juan Ferrara
       Manuel Dondé
       Luis Lomelí

◎标  签 荒诞 | 墨西哥 | CULT | 魔幻 | 亚历桑德罗·佐杜洛夫斯基 | AlejandroJodorowsky | 奇幻 | 墨西哥电影

◎简  介

  一位貌似耶稣的小偷(Horácio Salinas 饰)从儿童们的石块击打中醒来,与一个无手无脚的侏儒结伴进入城市。城中正进行一场疯狂的庆典,一些人被杀死,鸟雀从他们的枪口中飞出,大量蟾蜍穿着印第安人以及欧洲殖民者的服装在混战中被炸的粉碎。小偷从几个罗马士兵打扮的人手中接过十字架,又被他们将自身的形象制造成无数模型……小偷在众目睽睽下爬上了一座能生产黄金的高塔,塔内的术士从小偷的粪便中提炼出了金子。术士用占星术确认了几位门徒,他们是生产面具的商人、武器商、艺术家、玩具商、政府顾问、军队长官和建筑师,七人分别代表不同的行星。术士把这些掌控国家的人物积聚一起,抛弃一切之后向传说中的圣山进发寻找不朽的秘密。
Video
ID                                       : 1
Format                                   : AVC
Format/Info                              : Advanced Video Codec
Format settings                          : CABAC / 11 Ref Frames
Format settings, CABAC                   : Yes
Format settings, Reference frames        : 11 frames
Codec ID                                 : V_MPEG4/ISO/AVC
Duration                                 : 1 h 53 min
Bit rate                                 : 8 604 kb/s
Width                                    : 1 280 pixels
Height                                   : 546 pixels
Display aspect ratio                     : 2.35:1
Frame rate mode                          : Constant
Frame rate                               : 23.976 (24000/1001/189150) FPS
Color space                              : YUV
Chroma subsampling                       : 4:2:0
Bit depth                                : 8 bits
Scan type                                : Progressive
Bits/(Pixel*Frame)                       : 0.513
Stream size                              : 6.83 GiB (80%)
Writing library                          : x264 core 161 r3018 db0d417
Encoding settings                        : cabac=1 / ref=11 / deblock=1:-3:-3 / analyse=0x3:0x133 / me=umh / subme=10 / psy=1 / psy_rd=1.10:0.00 / mixed_ref=1 / me_range=32 / chroma_me=1 / trellis=2 / 8x8dct=1 / cqm=0 / deadzone=21,11 / fast_pskip=0 / chroma_qp_offset=-2 / threads=17 / lookahead_threads=4 / sliced_threads=0 / nr=0 / decimate=0 / interlaced=0 / bluray_compat=0 / constrained_intra=0 / bframes=10 / b_pyramid=2 / b_adapt=2 / b_bias=0 / direct=3 / weightb=1 / open_gop=0 / weightp=2 / keyint=250 / keyint_min=23 / scenecut=40 / intra_refresh=0 / rc=crf / mbtree=0 / crf=18.4 / qcomp=0.60 / qpmin=0 / qpmax=69 / qpstep=4 / ip_ratio=1.30 / pb_ratio=1.20 / aq=3:0.70
Default                                  : Yes
Forced                                   : No
Color range                              : Limited
Matrix coefficients                      : BT.709

Audio #1
ID                                       : 2
Format                                   : AC-3
Format/Info                              : Audio Coding 3
Commercial name                          : Dolby Digital
Codec ID                                 : A_AC3
Duration                                 : 1 h 53 min
Bit rate mode                            : Constant
Bit rate                                 : 640 kb/s
Channel(s)                               : 6 channels
Channel layout                           : L R C LFE Ls Rs
Sampling rate                            : 48.0 kHz
Frame rate                               : 31.250 FPS (1536 SPF)
Compression mode                         : Lossy
Stream size                              : 520 MiB (6%)
Title                                    : AC-3 5.1
Language                                 : English
Service kind                             : Complete Main
Default                                  : Yes
Forced                                   : No

Audio #2
ID                                       : 11
Format                                   : FLAC
Format/Info                              : Free Lossless Audio Codec
Codec ID                                 : A_FLAC
Duration                                 : 1 h 53 min
Bit rate mode                            : Variable
Bit rate                                 : 1 301 kb/s
Channel(s)                               : 2 channels
Channel layout                           : L R
Sampling rate                            : 48.0 kHz
Frame rate                               : 11.719 FPS (4096 SPF)
Bit depth                                : 24 bits
Compression mode                         : Lossless
Stream size                              : 1.03 GiB (12%)
Title                                    : Original Audio
Writing library                          : libFLAC 1.2.1 (UTC 2007-09-17)
Language                                 : English
Default                                  : No
Forced                                   : No

Audio #3
ID                                       : 12
Format                                   : AAC LC
Format/Info                              : Advanced Audio Codec Low Complexity
Codec ID                                 : A_AAC-2
Duration                                 : 1 h 53 min
Bit rate                                 : 127 kb/s
Channel(s)                               : 2 channels
Channel layout                           : L R
Sampling rate                            : 48.0 kHz
Frame rate                               : 46.875 FPS (1024 SPF)
Compression mode                         : Lossy
Delay relative to video                  : 9 ms
Stream size                              : 103 MiB (1%)
Title                                    : Commentary by Alejandro Jodorowsky
Language                                 : English
Default                                  : No
Forced                                   : No

Text #1
ID                                       : 3
Format                                   : UTF-8
Codec ID                                 : S_TEXT/UTF8
Codec ID/Info                            : UTF-8 Plain Text
Duration                                 : 1 h 44 min
Bit rate                                 : 17 b/s
Count of elements                        : 356
Stream size                              : 13.2 KiB (0%)
Title                                    : Full SRT
Language                                 : English
Default                                  : No
Forced                                   : No

Text #2
ID                                       : 4
Format                                   : PGS
Muxing mode                              : zlib
Codec ID                                 : S_HDMV/PGS
Codec ID/Info                            : Picture based subtitle format used on BDs/HD-DVDs
Duration                                 : 1 h 52 min
Bit rate                                 : 10.5 kb/s
Count of elements                        : 714
Stream size                              : 8.39 MiB (0%)
Title                                    : Full
Language                                 : English
Default                                  : No
Forced                                   : No

Text #3
ID                                       : 5
Format                                   : UTF-8
Codec ID                                 : S_TEXT/UTF8
Codec ID/Info                            : UTF-8 Plain Text
Duration                                 : 1 h 53 min
Bit rate                                 : 58 b/s
Count of elements                        : 979
Stream size                              : 48.5 KiB (0%)
Title                                    : Commentary by Alejandro Jodorowsky SRT
Language                                 : English
Default                                  : No
Forced                                   : No

Text #4
ID                                       : 6
Format                                   : PGS
Muxing mode                              : zlib
Codec ID                                 : S_HDMV/PGS
Codec ID/Info                            : Picture based subtitle format used on BDs/HD-DVDs
Duration                                 : 1 h 53 min
Bit rate                                 : 37.3 kb/s
Count of elements                        : 1961
Stream size                              : 30.3 MiB (0%)
Title                                    : Commentary by Alejandro Jodorowsky
Language                                 : Spanish
Default                                  : No
Forced                                   : No

Text #5
ID                                       : 7
Format                                   : PGS
Muxing mode                              : zlib
Codec ID                                 : S_HDMV/PGS
Codec ID/Info                            : Picture based subtitle format used on BDs/HD-DVDs
Duration                                 : 1 h 52 min
Bit rate                                 : 10.9 kb/s
Count of elements                        : 724
Stream size                              : 8.71 MiB (0%)
Title                                    : French
Language                                 : French
Default                                  : No
Forced                                   : No

Text #6
ID                                       : 8
Format                                   : PGS
Muxing mode                              : zlib
Codec ID                                 : S_HDMV/PGS
Codec ID/Info                            : Picture based subtitle format used on BDs/HD-DVDs
Duration                                 : 1 h 53 min
Bit rate                                 : 36.9 kb/s
Count of elements                        : 1937
Stream size                              : 29.9 MiB (0%)
Title                                    : Commentary by Alejandro Jodorowsky
Language                                 : French
Default                                  : No
Forced                                   : No

Text #7
ID                                       : 9
Format                                   : PGS
Muxing mode                              : zlib
Codec ID                                 : S_HDMV/PGS
Codec ID/Info                            : Picture based subtitle format used on BDs/HD-DVDs
Duration                                 : 1 h 52 min
Bit rate                                 : 11.0 kb/s
Count of elements                        : 720
Stream size                              : 8.85 MiB (0%)
Title                                    : Spanish
Language                                 : Spanish
Default                                  : No
Forced                                   : No

Text #8
ID                                       : 10
Format                                   : PGS
Muxing mode                              : zlib
Codec ID                                 : S_HDMV/PGS
Codec ID/Info                            : Picture based subtitle format used on BDs/HD-DVDs
Duration                                 : 1 h 53 min
Bit rate                                 : 37.0 kb/s
Count of elements                        : 1973
Stream size                              : 30.1 MiB (0%)
Title                                    : Commentary by Alejandro Jodorowsky
Language                                 : Spanish
Default                                  : No
Forced                                   : No

Menu
00:00:00.000                             : en:Chapter 01
00:09:13.219                             : en:Chapter 02
00:17:55.032                             : en:Chapter 03
00:30:51.308                             : en:Chapter 04
00:40:21.377                             : en:Chapter 05
00:48:15.476                             : en:Chapter 06
01:00:09.397                             : en:Chapter 07
01:08:57.633                             : en:Chapter 08
01:15:55.718                             : en:Chapter 09
01:24:35.362                             : en:Chapter 10
01:37:01.357                             : en:Chapter 11
01:47:25.814                             : en:Chapter 12



aba779423316741a8bbd953cd9c6caaf.zip (43.68 KB, 下载次数: 0)

回复

使用道具 举报

您需要登录后才可以回帖 登录 | 立即注册

本版积分规则

5n电影网  

本网站所有资源来自网络,如无意中侵犯了您的权益,请发邮件至 [email protected],立即清除相关链接

GMT+8, 2020-9-25 05:11 , Processed in 0.103487 second(s), 30 queries .

Powered by Discuz! X3.2

© 2001-2013 Comsenz Inc.

快速回复 返回顶部 返回列表