请选择 进入手机版 | 继续访问电脑版

5n电影网

 找回密码
 立即注册

荒蛮世界 World.Gone.Wild.1987.720p.BluRay.x264-GUACAMOLE 5.13GB

[复制链接]
高清bt 发表于 2020-8-26 14:07:26 | 显示全部楼层 |阅读模式
帖子完整标题:荒蛮世界 World.Gone.Wild.1987.720p.BluRay.x264-GUACAMOLE 5.13GB




◎译  名 荒蛮世界
◎片  名 World Gone Wild
◎年  代 1988
◎产  地 美国
◎类  别 动作 / 科幻
◎语  言 英语
◎上映日期 1988
◎IMDb评分  5.1/10 from 704 users
◎片  长 USA: 95 分钟
◎导  演 李·H·卡金 Lee H. Katzin
◎主  演 布鲁斯·邓恩 Bruce Dern
       凯瑟琳·玛丽·斯图尔特 Catherine Mary Stewart
       迈克尔·帕尔 Michael Paré
       Mindy McEnnan
       Larry Ketchum
       Stephen Hastings
       Julius Carry
       Alan Autry
       亚当·安特 Adam Ant
       里克·波德尔 Rick Podell
       安东尼·詹姆斯 Anthony James
       米克·罗杰斯 Mic Rodgers

◎标  签 被忽视的片子 | 美国 | 科幻 | 美国电影 | 暴力 | 后启示录 | 电影-USA | 影-USA

◎简  介

  In the nuclear ravaged wasteland of Earth 2087 water is as precious as life itself. The isolated Lost Wells outpost survived the holocaust and the inhabitants guard the source of their existence. Now an evil cult of renegades want control of their valuable water supply. And the villagers are no match for such brute military force. Only one man can help the stricken community - a mercenary living in a distant cannibal city. But even he, and his strange henchmen, may not be able to survive in the world gone wild.
Video
ID                                       : 1
Format                                   : AVC
Format/Info                              : Advanced Video Codec
Format settings                          : CABAC / 8 Ref Frames
Format settings, CABAC                   : Yes
Format settings, Reference frames        : 8 frames
Codec ID                                 : V_MPEG4/ISO/AVC
Duration                                 : 1 h 34 min
Bit rate                                 : 6 976 kb/s
Width                                    : 1 280 pixels
Height                                   : 694 pixels
Display aspect ratio                     : 1.85:1
Frame rate mode                          : Constant
Frame rate                               : 23.976 (24000/1001/189150) FPS
Color space                              : YUV
Chroma subsampling                       : 4:2:0
Bit depth                                : 8 bits
Scan type                                : Progressive
Bits/(Pixel*Frame)                       : 0.328
Stream size                              : 4.60 GiB (90%)
Writing library                          : x264 core 161 r3018 db0d417
Encoding settings                        : cabac=1 / ref=8 / deblock=1:-3:-3 / analyse=0x3:0x133 / me=umh / subme=9 / psy=1 / psy_rd=1.00:0.00 / mixed_ref=1 / me_range=16 / chroma_me=1 / trellis=2 / 8x8dct=1 / cqm=0 / deadzone=21,11 / fast_pskip=0 / chroma_qp_offset=-2 / threads=22 / lookahead_threads=1 / sliced_threads=0 / nr=0 / decimate=1 / interlaced=0 / bluray_compat=0 / constrained_intra=0 / bframes=3 / b_pyramid=2 / b_adapt=2 / b_bias=0 / direct=3 / weightb=1 / open_gop=0 / weightp=2 / keyint=250 / keyint_min=23 / scenecut=40 / intra_refresh=0 / rc_lookahead=60 / rc=crf / mbtree=1 / crf=19.5 / qcomp=0.60 / qpmin=0 / qpmax=69 / qpstep=4 / ip_ratio=1.40 / aq=3:0.70
Default                                  : Yes
Forced                                   : No
Color range                              : Limited
Color primaries                          : BT.709
Transfer characteristics                 : BT.709
Matrix coefficients                      : BT.709

Audio
ID                                       : 2
Format                                   : FLAC
Format/Info                              : Free Lossless Audio Codec
Codec ID                                 : A_FLAC
Duration                                 : 1 h 34 min
Bit rate mode                            : Variable
Bit rate                                 : 795 kb/s
Channel(s)                               : 2 channels
Channel layout                           : L R
Sampling rate                            : 48.0 kHz
Frame rate                               : 10.417 FPS (4608 SPF)
Bit depth                                : 24 bits
Compression mode                         : Lossless
Stream size                              : 537 MiB (10%)
Writing library                          : MakeMKV v1.15.1 win(x64-release)
Language                                 : English
Default                                  : Yes
Forced                                   : No

Menu
00:00:00.000                             : en:00:00:00.000
00:15:30.138                             : en:00:15:30.138
00:25:09.466                             : en:00:25:09.466
00:37:07.100                             : en:00:37:07.100
00:48:42.044                             : en:00:48:42.044
00:59:16.803                             : en:00:59:16.803
01:13:53.596                             : en:01:13:53.596
01:23:04.688                             : en:01:23:04.688
01:31:12.008                             : en:01:31:12.008




                                                                                                                                                                                                        


c862cecc9cfab7646bb8540bf6428944.zip (26.74 KB, 下载次数: 0)

回复

使用道具 举报

您需要登录后才可以回帖 登录 | 立即注册

本版积分规则

5n电影网  

本网站所有资源来自网络,如无意中侵犯了您的权益,请发邮件至 [email protected],立即清除相关链接

GMT+8, 2020-9-25 04:04 , Processed in 0.108200 second(s), 30 queries .

Powered by Discuz! X3.2

© 2001-2013 Comsenz Inc.

快速回复 返回顶部 返回列表