请选择 进入手机版 | 继续访问电脑版

5n电影网

 找回密码
 立即注册

自杀解决方案 Daddys.Girl.2018.720p.BluRay.x264-JustWatch 1.55GB

[复制链接]
电影下载 发表于 2020-8-27 11:28:15 | 显示全部楼层 |阅读模式
帖子完整标题:自杀解决方案 Daddys.Girl.2018.720p.BluRay.x264-JustWatch 1.55GB




◎译  名 自杀解决方案/Suicide Solution
◎片  名 Daddy's Girl
◎年  代 2018
◎产  地 美国
◎类  别 惊悚 / 恐怖 / 犯罪
◎语  言 英语
◎上映日期 2018-10-04(Raindance Film Festival)
◎片  长 81分钟
◎导  演 朱利安·理查德 Julian Richards
◎主  演 杰玛·达兰德 Jemma Dallender
       马克·阿诺德 Mark Arnold

◎标  签 惊悚 | 悬疑 | 恐怖

◎简  介

  A young woman held captive by her stepfather becomes the focus of a female vigilante.
Video
ID                                       : 1
Format                                   : AVC
Format/Info                              : Advanced Video Codec
Format settings                          : CABAC / 8 Ref Frames
Format settings, CABAC                   : Yes
Format settings, Reference frames        : 8 frames
Codec ID                                 : V_MPEG4/ISO/AVC
Duration                                 : 1 h 20 min
Bit rate                                 : 2 095 kb/s
Width                                    : 1 280 pixels
Height                                   : 538 pixels
Display aspect ratio                     : 2.40:1
Frame rate mode                          : Constant
Frame rate                               : 24.000 FPS
Color space                              : YUV
Chroma subsampling                       : 4:2:0
Bit depth                                : 8 bits
Scan type                                : Progressive
Bits/(Pixel*Frame)                       : 0.127
Stream size                              : 1.18 GiB (76%)
Writing library                          : x264 core 161 r3018 db0d417
Encoding settings                        : cabac=1 / ref=8 / deblock=1:-3:-3 / analyse=0x3:0x133 / me=umh / subme=9 / psy=1 / psy_rd=1.00:0.00 / mixed_ref=1 / me_range=16 / chroma_me=1 / trellis=2 / 8x8dct=1 / cqm=0 / deadzone=21,11 / fast_pskip=0 / chroma_qp_offset=-2 / threads=17 / lookahead_threads=1 / sliced_threads=0 / nr=0 / decimate=1 / interlaced=0 / bluray_compat=0 / constrained_intra=0 / bframes=3 / b_pyramid=2 / b_adapt=2 / b_bias=0 / direct=3 / weightb=1 / open_gop=0 / weightp=2 / keyint=250 / keyint_min=24 / scenecut=40 / intra_refresh=0 / rc_lookahead=60 / rc=crf / mbtree=1 / crf=17.0 / qcomp=0.60 / qpmin=0 / qpmax=69 / qpstep=4 / ip_ratio=1.40 / aq=1:1.00
Language                                 : English
Default                                  : Yes
Forced                                   : No

Audio
ID                                       : 2
Format                                   : AC-3
Format/Info                              : Audio Coding 3
Commercial name                          : Dolby Digital
Codec ID                                 : A_AC3
Duration                                 : 1 h 20 min
Bit rate mode                            : Constant
Bit rate                                 : 640 kb/s
Channel(s)                               : 6 channels
Channel layout                           : L R C LFE Ls Rs
Sampling rate                            : 48.0 kHz
Frame rate                               : 31.250 FPS (1536 SPF)
Compression mode                         : Lossy
Stream size                              : 370 MiB (23%)
Language                                 : English
Service kind                             : Complete Main
Default                                  : Yes
Forced                                   : No

Text
ID                                       : 3
Format                                   : PGS
Muxing mode                              : zlib
Codec ID                                 : S_HDMV/PGS
Codec ID/Info                            : Picture based subtitle format used on BDs/HD-DVDs
Duration                                 : 1 h 14 min
Bit rate                                 : 20.7 kb/s
Count of elements                        : 1188
Stream size                              : 11.0 MiB (1%)
Language                                 : German
Default                                  : No
Forced                                   : No

Menu
00:00:00.000                             : :Kapitel 01
00:06:21.833                             : :Kapitel 02
00:12:38.208                             : :Kapitel 03
00:19:38.250                             : :Kapitel 04
00:25:40.333                             : :Kapitel 05
00:29:58.167                             : :Kapitel 06
00:36:54.958                             : :Kapitel 07
00:43:08.917                             : :Kapitel 08
00:48:51.875                             : :Kapitel 09
00:54:41.875                             : :Kapitel 10
01:00:40.708                             : :Kapitel 11
01:06:59.583                             : :Kapitel 12
01:17:03.542                             : :Kapitel 13




                                                                                                                                                                                                        


ad1d30305d678bc0318fdf90c18e83fa.zip (16.22 KB, 下载次数: 0)

回复

使用道具 举报

您需要登录后才可以回帖 登录 | 立即注册

本版积分规则

5n电影网  

本网站所有资源来自网络,如无意中侵犯了您的权益,请发邮件至 [email protected],立即清除相关链接

GMT+8, 2020-9-25 05:40 , Processed in 0.291836 second(s), 30 queries .

Powered by Discuz! X3.2

© 2001-2013 Comsenz Inc.

快速回复 返回顶部 返回列表