请选择 进入手机版 | 继续访问电脑版

5n电影网

 找回密码
 立即注册

森林中的女巫 Witches.in.the.Woods.2019.720p.BluRay.x264-PussyFoot 1.87GB

[复制链接]
电影天堂 发表于 2020-9-1 19:26:40 | 显示全部楼层 |阅读模式
帖子完整标题:森林中的女巫 Witches.in.the.Woods.2019.720p.BluRay.x264-PussyFoot 1.87GB




◎译  名 森林中的女巫/Stranded
◎片  名 Witches in the Woods
◎年  代 2019
◎产  地 加拿大
◎类  别 悬疑 / 惊悚 / 恐怖
◎语  言 英语
◎上映日期 2019-08-25(巴西)
◎IMDb评分  4.1/10 from 818 users
◎片  长 90分钟
◎编  剧 克里斯托弗·博雷利 Christopher Borrelli
◎主  演 汉娜·卡苏拉卡 Hannah Kasulka
       Alexander De Jordy
       科宾·布鲁 Corbin Bleu

◎标  签 惊悚 | 悬疑 | 恐怖 | 电影 | 民间神怪吸血鬼狼人巫师等系列 | 加拿大电影

◎简  介

  Jill (Hannah Kasulka), a tenacious UMass student, abandons her studies for an off-the-grid snowboarding trip in Stoughton Valley, Massachusetts.Unfortunately, after the sun has dipped below the horizon, the group’s SUV becomes mysteriously lost in the freshly-logged mountains, eventually running out of gas.As temperatures fall, the group dynamic unravels as a virtual and then a literal witch hunt begins…
Video
ID                                       : 1
Format                                   : AVC
Format/Info                              : Advanced Video Codec
Format settings                          : CABAC / 8 Ref Frames
Format settings, CABAC                   : Yes
Format settings, Reference frames        : 8 frames
Codec ID                                 : V_MPEG4/ISO/AVC
Duration                                 : 1 h 30 min
Bit rate                                 : 2 310 kb/s
Width                                    : 1 280 pixels
Height                                   : 536 pixels
Display aspect ratio                     : 2.40:1
Frame rate mode                          : Constant
Frame rate                               : 23.976 (24000/1001/189150) FPS
Color space                              : YUV
Chroma subsampling                       : 4:2:0
Bit depth                                : 8 bits
Scan type                                : Progressive
Bits/(Pixel*Frame)                       : 0.140
Stream size                              : 1.46 GiB (78%)
Writing library                          : x264 core 161 r3018 db0d417
Encoding settings                        : cabac=1 / ref=8 / deblock=1:-3:-3 / analyse=0x3:0x133 / me=umh / subme=9 / psy=1 / psy_rd=1.00:0.00 / mixed_ref=1 / me_range=16 / chroma_me=1 / trellis=2 / 8x8dct=1 / cqm=0 / deadzone=21,11 / fast_pskip=0 / chroma_qp_offset=-2 / threads=17 / lookahead_threads=1 / sliced_threads=0 / nr=0 / decimate=1 / interlaced=0 / bluray_compat=0 / constrained_intra=0 / bframes=3 / b_pyramid=2 / b_adapt=2 / b_bias=0 / direct=3 / weightb=1 / open_gop=0 / weightp=2 / keyint=250 / keyint_min=23 / scenecut=40 / intra_refresh=0 / rc_lookahead=60 / rc=crf / mbtree=1 / crf=17.0 / qcomp=0.60 / qpmin=0 / qpmax=69 / qpstep=4 / ip_ratio=1.40 / aq=1:1.00
Language                                 : English
Default                                  : Yes
Forced                                   : No

Audio
ID                                       : 2
Format                                   : AC-3
Format/Info                              : Audio Coding 3
Commercial name                          : Dolby Digital
Codec ID                                 : A_AC3
Duration                                 : 1 h 30 min
Bit rate mode                            : Constant
Bit rate                                 : 640 kb/s
Channel(s)                               : 6 channels
Channel layout                           : L R C LFE Ls Rs
Sampling rate                            : 48.0 kHz
Frame rate                               : 31.250 FPS (1536 SPF)
Compression mode                         : Lossy
Stream size                              : 415 MiB (22%)
Language                                 : English
Service kind                             : Complete Main
Default                                  : Yes
Forced                                   : No

Text
ID                                       : 3
Format                                   : PGS
Muxing mode                              : zlib
Codec ID                                 : S_HDMV/PGS
Codec ID/Info                            : Picture based subtitle format used on BDs/HD-DVDs
Duration                                 : 1 h 23 min
Bit rate                                 : 17.6 kb/s
Count of elements                        : 1330
Stream size                              : 10.4 MiB (1%)
Language                                 : German
Default                                  : No
Forced                                   : No

Menu
00:00:00.000                             : :Kapitel 01
00:03:06.144                             : :Kapitel 02
00:08:50.155                             : :Kapitel 03
00:13:43.239                             : :Kapitel 04
00:23:43.005                             : :Kapitel 05
00:33:02.606                             : :Kapitel 06
00:43:34.445                             : :Kapitel 07
00:54:40.986                             : :Kapitel 08
00:59:38.867                             : :Kapitel 09
01:05:39.102                             : :Kapitel 10
01:16:30.002                             : :Kapitel 11
01:26:24.971                             : :Kapitel 12




                                                                                                                                                                                                        


606dd7d5d2dd39c1f4e96daf51d2092d.zip (19.43 KB, 下载次数: 0)

回复

使用道具 举报

您需要登录后才可以回帖 登录 | 立即注册

本版积分规则

5n电影网  

本网站所有资源来自网络,如无意中侵犯了您的权益,请发邮件至 [email protected],立即清除相关链接

GMT+8, 2020-9-25 04:49 , Processed in 0.174331 second(s), 30 queries .

Powered by Discuz! X3.2

© 2001-2013 Comsenz Inc.

快速回复 返回顶部 返回列表