请选择 进入手机版 | 继续访问电脑版

5n电影网

 找回密码
 立即注册

集体婚礼 The.Wedding.2020.720p.BluRay.x264-UNVEiL 3.74GB

[复制链接]
电影天堂 发表于 2020-9-4 11:23:11 | 显示全部楼层 |阅读模式
帖子完整标题:集体婚礼 The.Wedding.2020.720p.BluRay.x264-UNVEiL 3.74GB




◎译  名 集体婚礼/Klassentreffen - Die Hochzeit
◎片  名 Die Hochzeit
◎年  代 2020
◎产  地 德国
◎类  别 喜剧
◎语  言 德语
◎上映日期 2020-01-23(德国)
◎IMDb评分  2.8/10 from 314 users
◎导  演 蒂尔·施威格 Til Schweiger
◎编  剧 蒂尔·施威格 Til Schweiger / 卢多维克斯·马林克 Lo Malinke
◎主  演 蒂尔·施威格 Til Schweiger
       萨缪尔·芬齐 Samuel Finzi
       米兰·佩舍尔 Milan Peschel
       蒂莫·巴特尔斯 Timur Bartels
       詹妮特·海因 Jeanette Hain
       宝拉·保罗 Paula Paul
       约翰娜·加斯多夫 Johanna Gastdorf
       安吉拉·罗伊 Angela Roy
       Brigitte Zeh
       Anna Grisebach
       Guido Broscheit

◎标  签 ge

◎简  介

  Three friends from school, Thomas, Nils and Andreas, m.77mi.cc are still searching for love in their adult lives.
Video
ID                                       : 1
Format                                   : AVC
Format/Info                              : Advanced Video Codec
Format settings                          : CABAC / 8 Ref Frames
Format settings, CABAC                   : Yes
Format settings, Reference frames        : 8 frames
Codec ID                                 : V_MPEG4/ISO/AVC
Duration                                 : 1 h 59 min
Bit rate                                 : 3 799 kb/s
Width                                    : 1 280 pixels
Height                                   : 536 pixels
Display aspect ratio                     : 2.40:1
Frame rate mode                          : Constant
Frame rate                               : 23.976 (24000/1001/189150) FPS
Color space                              : YUV
Chroma subsampling                       : 4:2:0
Bit depth                                : 8 bits
Scan type                                : Progressive
Bits/(Pixel*Frame)                       : 0.231
Stream size                              : 3.17 GiB (85%)
Writing library                          : x264 core 161 r3018 db0d417
Encoding settings                        : cabac=1 / ref=8 / deblock=1:-3:-3 / analyse=0x3:0x133 / me=umh / subme=9 / psy=1 / psy_rd=1.00:0.00 / mixed_ref=1 / me_range=16 / chroma_me=1 / trellis=2 / 8x8dct=1 / cqm=0 / deadzone=21,11 / fast_pskip=0 / chroma_qp_offset=-2 / threads=17 / lookahead_threads=1 / sliced_threads=0 / nr=0 / decimate=1 / interlaced=0 / bluray_compat=0 / constrained_intra=0 / bframes=3 / b_pyramid=2 / b_adapt=2 / b_bias=0 / direct=3 / weightb=1 / open_gop=0 / weightp=2 / keyint=250 / keyint_min=23 / scenecut=40 / intra_refresh=0 / rc_lookahead=60 / rc=crf / mbtree=1 / crf=17.0 / qcomp=0.60 / qpmin=0 / qpmax=69 / qpstep=4 / ip_ratio=1.40 / aq=1:1.00
Language                                 : English
Default                                  : Yes
Forced                                   : No

Audio
ID                                       : 2
Format                                   : AC-3
Format/Info                              : Audio Coding 3
Commercial name                          : Dolby Digital
Codec ID                                 : A_AC3
Duration                                 : 1 h 59 min
Bit rate mode                            : Constant
Bit rate                                 : 640 kb/s
Channel(s)                               : 6 channels
Channel layout                           : L R C LFE Ls Rs
Sampling rate                            : 48.0 kHz
Frame rate                               : 31.250 FPS (1536 SPF)
Compression mode                         : Lossy
Stream size                              : 546 MiB (14%)
Language                                 : German
Service kind                             : Complete Main
Default                                  : Yes
Forced                                   : No

Text #1
ID                                       : 3
Format                                   : UTF-8
Codec ID                                 : S_TEXT/UTF8
Codec ID/Info                            : UTF-8 Plain Text
Duration                                 : 1 h 58 min
Bit rate                                 : 61 b/s
Count of elements                        : 1588
Stream size                              : 52.9 KiB (0%)
Language                                 : English
Default                                  : Yes
Forced                                   : No

Text #2
ID                                       : 4
Format                                   : PGS
Muxing mode                              : zlib
Codec ID                                 : S_HDMV/PGS
Codec ID/Info                            : Picture based subtitle format used on BDs/HD-DVDs
Duration                                 : 1 h 58 min
Bit rate                                 : 38.6 kb/s
Count of elements                        : 3176
Stream size                              : 32.7 MiB (1%)
Language                                 : English
Default                                  : No
Forced                                   : No

Text #3
ID                                       : 5
Format                                   : PGS
Muxing mode                              : zlib
Codec ID                                 : S_HDMV/PGS
Codec ID/Info                            : Picture based subtitle format used on BDs/HD-DVDs
Duration                                 : 1 h 58 min
Bit rate                                 : 46.1 kb/s
Count of elements                        : 3338
Stream size                              : 39.0 MiB (1%)
Language                                 : German
Default                                  : No
Forced                                   : No

Menu
00:00:00.000                             : :Kapitel 01
00:12:18.696                             : :Kapitel 02
00:21:40.966                             : :Kapitel 03
00:28:46.266                             : :Kapitel 04
00:38:40.276                             : :Kapitel 05
00:51:44.727                             : :Kapitel 06
00:59:49.961                             : :Kapitel 07
01:11:01.466                             : :Kapitel 08
01:23:53.612                             : :Kapitel 09
01:35:26.554                             : :Kapitel 10
01:43:01.175                             : :Kapitel 11
01:48:42.266                             : :Kapitel 12




                                                                                                                                                                                                        
                                                                                                                                                                                                                                                                                                                                                                                                                                                                                                                                                                                                                                                                                                                              
84af00acb3e9777993316f9b28c31f7d.zip (22.64 KB, 下载次数: 0)

回复

使用道具 举报

您需要登录后才可以回帖 登录 | 立即注册

本版积分规则

5n电影网  

本网站所有资源来自网络,如无意中侵犯了您的权益,请发邮件至 [email protected],立即清除相关链接

GMT+8, 2020-9-25 04:01 , Processed in 0.103651 second(s), 30 queries .

Powered by Discuz! X3.2

© 2001-2013 Comsenz Inc.

快速回复 返回顶部 返回列表