请选择 进入手机版 | 继续访问电脑版

5n电影网

 找回密码
 立即注册

虎胆悍将 Hard.Kill.2020.720p.BluRay.x264.DTS-FGT 4.82GB

[复制链接]
电影下载 发表于 2020-9-10 10:22:23 | 显示全部楼层 |阅读模式
-->
帖子完整标题:虎胆悍将 Hard.Kill.2020.720p.BluRay.x264.DTS-FGT 4.82GB




◎译  名 虎胆悍将/Open Source
◎片  名 Hard Kill
◎年  代 2020
◎产  地 美国
◎类  别 动作
◎语  言 英语
◎上映日期 2020-08-21(美国网络)
◎IMDb评分  2.9/10 from 1329 users
◎国配电影  www.guopeidy.com
◎片  长 98分钟
◎导  演 马特·伊斯坎达里 Matt Eskandari
◎编  剧 乔·罗素 Joe Russo
◎主  演 布鲁斯·威利斯 Bruce Willis
       特夏斯·巴特尔 Texas Battle
       斯温·特梅尔 Swen Temmel
       杰西·麦特卡尔菲 Jesse Metcalfe

◎标  签 动作 | 2020 | 美国 | 犯罪 | 布鲁斯·威利斯 | 烂片中的烂片 | 磨叽 | 碟碟不休

◎简  介

  亿万富翁科技公司首席执行官多诺万·查尔莫斯的工作非常有价值,他雇佣雇佣兵来保护它,一个恐怖组织为此绑架了他的女儿以求得到它。
Video
ID                                       : 1
Format                                   : AVC
Format/Info                              : Advanced Video Codec
Format settings                          : CABAC / 4 Ref Frames
Format settings, CABAC                   : Yes
Format settings, Reference frames        : 4 frames
Codec ID                                 : V_MPEG4/ISO/AVC
Duration                                 : 1 h 38 min
Bit rate                                 : 5 500 kb/s
Width                                    : 1 280 pixels
Height                                   : 534 pixels
Display aspect ratio                     : 2.40:1
Original display aspect ratio            : 2.40:1
Frame rate mode                          : Constant
Frame rate                               : 23.976 (24000/1001/189150) FPS
Color space                              : YUV
Chroma subsampling                       : 4:2:0
Bit depth                                : 8 bits
Scan type                                : Progressive
Bits/(Pixel*Frame)                       : 0.336
Stream size                              : 3.78 GiB (78%)
Title                                    : Hard.Kill.2020.720p.BluRay.x264.DTS-FGT
Writing library                          : x264 core 148 r2795M aaa9aa8
Encoding settings                        : cabac=1 / ref=4 / deblock=1:-2:-2 / analyse=0x3:0x113 / me=umh / subme=9 / psy=1 / psy_rd=1.00:0.15 / mixed_ref=1 / me_range=16 / chroma_me=1 / trellis=2 / 8x8dct=1 / cqm=0 / deadzone=21,11 / fast_pskip=1 / chroma_qp_offset=-3 / threads=24 / lookahead_threads=3 / sliced_threads=0 / nr=0 / decimate=1 / interlaced=0 / bluray_compat=0 / constrained_intra=0 / bframes=3 / b_pyramid=2 / b_adapt=1 / b_bias=0 / direct=3 / weightb=1 / open_gop=0 / weightp=2 / keyint=250 / keyint_min=25 / scenecut=40 / intra_refresh=0 / rc_lookahead=50 / rc=2pass / mbtree=1 / bitrate=5500 / ratetol=1.0 / qcomp=0.60 / qpmin=0 / qpmax=69 / qpstep=4 / cplxblur=20.0 / qblur=0.5 / vbv_maxrate=31250 / vbv_bufsize=31250 / nal_hrd=none / filler=0 / ip_ratio=1.40 / aq=1:1.00
Language                                 : English
Default                                  : Yes
Forced                                   : No

Audio
ID                                       : 2
Format                                   : DTS
Format/Info                              : Digital Theater Systems
Codec ID                                 : A_DTS
Duration                                 : 1 h 38 min
Bit rate mode                            : Constant
Bit rate                                 : 1 509 kb/s
Channel(s)                               : 6 channels
Channel layout                           : C L R Ls Rs LFE
Sampling rate                            : 48.0 kHz
Frame rate                               : 93.750 FPS (512 SPF)
Bit depth                                : 16 bits
Compression mode                         : Lossy
Stream size                              : 1.04 GiB (22%)
Title                                    : Hard.Kill.2020.720p.BluRay.x264.DTS-FGT
Language                                 : English
Default                                  : Yes
Forced                                   : No

Text
ID                                       : 3
Format                                   : UTF-8
Codec ID                                 : S_TEXT/UTF8
Codec ID/Info                            : UTF-8 Plain Text
Duration                                 : 1 h 30 min
Bit rate                                 : 40 b/s
Count of elements                        : 1008
Stream size                              : 26.7 KiB (0%)
Language                                 : English
Default                                  : Yes
Forced                                   : No

Menu
00:00:00.000                             : en:Chapter 01
00:16:13.597                             : en:Chapter 02
00:34:51.964                             : en:Chapter 03
00:53:57.776                             : en:Chapter 04
01:09:15.025                             : en:Chapter 05
01:30:02.522                             : en:Chapter 06




                                                                                                                                                                                                        
                                                                                                                                                                                                                                          
34b472f0d222e710b03dcc1545d5c9b7.zip (48.8 KB, 下载次数: 0)

回复

使用道具 举报

您需要登录后才可以回帖 登录 | 立即注册

本版积分规则

5n电影网  

本网站所有资源来自网络,如无意中侵犯了您的权益,请发邮件至 [email protected],立即清除相关链接

GMT+8, 2020-9-25 04:18 , Processed in 0.175221 second(s), 30 queries .

Powered by Discuz! X3.2

© 2001-2013 Comsenz Inc.

快速回复 返回顶部 返回列表