请选择 进入手机版 | 继续访问电脑版

5n电影网

 找回密码
 立即注册

艾娃 Ava.2020.720p.BluRay.x264.DTS-FGT 4.74GB

[复制链接]
高清bt 发表于 2020-9-11 10:37:40 | 显示全部楼层 |阅读模式
帖子完整标题:艾娃 Ava.2020.720p.BluRay.x264.DTS-FGT 4.74GB




◎译  名 艾娃/Eve/伊芙/头号杀姬Ava(港)/追杀艾娃(台)
◎片  名 Ava
◎年  代 2020
◎产  地 美国
◎类  别 动作 / 惊悚 / 犯罪
◎语  言 英语
◎上映日期 2020-07-02(匈牙利) / 2020-08-25(加拿大网络) / 2020-09-25(美国)
◎片  长 96分钟
◎导  演 泰特·泰勒 Tate Taylor
◎编  剧 马修·纽顿 Matthew Newton
◎主  演 杰西卡·查斯坦 Jessica Chastain
       科林·法瑞尔 Colin Farrell
       约翰·马尔科维奇 John Malkovich
       吉娜·戴维斯 Geena Davis
       陈冲 Joan Chen
       戴安娜·西尔弗斯 Diana Silvers
       科曼 Common
       艾恩·格拉法德 Ioan Gruffudd
       杰丝·威克斯勒 Jess Weixler
       埃夫卡·科瓦拉西尤斯 Efka Kvaraciejus
       安妮·比萨比亚 Annie Pisapia
       克里斯托弗·J·多米格 Christopher J. Domig

◎标  签 动作 | 美国 | 杰西卡·查斯坦 | 2020 | 美国电影 | 科林·法瑞尔 | 剧情 | 陈冲

◎简  介

  顶尖杀手艾娃效忠于一个神祕组织,在全球各地执行高价值目标的暗杀行动。然而,一次出了差错的行动,让艾娃身陷生死危机。面对各路杀手铺天盖地的追杀,无路可退的艾娃唯有杀出血路,才有活下去的机会…
Video
ID                                       : 1
Format                                   : AVC
Format/Info                              : Advanced Video Codec
Format settings                          : CABAC / 4 Ref Frames
Format settings, CABAC                   : Yes
Format settings, Reference frames        : 4 frames
Codec ID                                 : V_MPEG4/ISO/AVC
Duration                                 : 1 h 36 min
Bit rate                                 : 5 500 kb/s
Width                                    : 1 280 pixels
Height                                   : 534 pixels
Display aspect ratio                     : 2.40:1
Original display aspect ratio            : 2.40:1
Frame rate mode                          : Constant
Frame rate                               : 23.976 (24000/1001/189150) FPS
Color space                              : YUV
Chroma subsampling                       : 4:2:0
Bit depth                                : 8 bits
Scan type                                : Progressive
Bits/(Pixel*Frame)                       : 0.336
Stream size                              : 3.72 GiB (78%)
Title                                    : Ava.2020.720p.BluRay.x264.DTS-FGT
Writing library                          : x264 core 148 r2795M aaa9aa8
Encoding settings                        : cabac=1 / ref=4 / deblock=1:-2:-2 / analyse=0x3:0x113 / me=umh / subme=9 / psy=1 / psy_rd=1.00:0.15 / mixed_ref=1 / me_range=16 / chroma_me=1 / trellis=2 / 8x8dct=1 / cqm=0 / deadzone=21,11 / fast_pskip=1 / chroma_qp_offset=-3 / threads=24 / lookahead_threads=3 / sliced_threads=0 / nr=0 / decimate=1 / interlaced=0 / bluray_compat=0 / constrained_intra=0 / bframes=3 / b_pyramid=2 / b_adapt=1 / b_bias=0 / direct=3 / weightb=1 / open_gop=0 / weightp=2 / keyint=250 / keyint_min=25 / scenecut=40 / intra_refresh=0 / rc_lookahead=50 / rc=2pass / mbtree=1 / bitrate=5500 / ratetol=1.0 / qcomp=0.60 / qpmin=0 / qpmax=69 / qpstep=4 / cplxblur=20.0 / qblur=0.5 / vbv_maxrate=31250 / vbv_bufsize=31250 / nal_hrd=none / filler=0 / ip_ratio=1.40 / aq=1:1.00
Language                                 : English
Default                                  : Yes
Forced                                   : No

Audio
ID                                       : 2
Format                                   : DTS
Format/Info                              : Digital Theater Systems
Codec ID                                 : A_DTS
Duration                                 : 1 h 36 min
Bit rate mode                            : Constant
Bit rate                                 : 1 509 kb/s
Channel(s)                               : 6 channels
Channel layout                           : C L R Ls Rs LFE
Sampling rate                            : 48.0 kHz
Frame rate                               : 93.750 FPS (512 SPF)
Bit depth                                : 24 bits
Compression mode                         : Lossy
Stream size                              : 1.02 GiB (22%)
Title                                    : Ava.2020.720p.BluRay.x264.DTS-FGT
Language                                 : English
Default                                  : Yes
Forced                                   : No

Text
ID                                       : 3
Format                                   : UTF-8
Codec ID                                 : S_TEXT/UTF8
Codec ID/Info                            : UTF-8 Plain Text
Duration                                 : 1 h 30 min
Bit rate                                 : 45 b/s
Count of elements                        : 909
Stream size                              : 30.5 KiB (0%)
Language                                 : English
Default                                  : Yes
Forced                                   : No

Menu
00:00:00.000                             : en:Chapter 01
00:11:07.542                             : en:Chapter 02
00:21:53.145                             : en:Chapter 03
00:32:22.899                             : en:Chapter 04
00:44:26.497                             : en:Chapter 05
00:58:33.427                             : en:Chapter 06
01:10:38.192                             : en:Chapter 07
01:18:23.949                             : en:Chapter 08
01:32:28.752                             : en:Chapter 09




                                                                                                                                                                                                        


30fc8fecbac505046be93d14beff7252.zip (48.84 KB, 下载次数: 0)

回复

使用道具 举报

您需要登录后才可以回帖 登录 | 立即注册

本版积分规则

5n电影网  

本网站所有资源来自网络,如无意中侵犯了您的权益,请发邮件至 [email protected],立即清除相关链接

GMT+8, 2020-9-25 04:20 , Processed in 0.099510 second(s), 30 queries .

Powered by Discuz! X3.2

© 2001-2013 Comsenz Inc.

快速回复 返回顶部 返回列表