请选择 进入手机版 | 继续访问电脑版

5n电影网

 找回密码
 立即注册

小小陌生人 The.Little.Stranger.2018.1080p.BluRay.X264-AMIABLE 7.67GB

[复制链接]
bt电影 发表于 2020-9-15 10:24:57 | 显示全部楼层 |阅读模式
帖子完整标题:小小陌生人 The.Little.Stranger.2018.1080p.BluRay.X264-AMIABLE 7.67GB




◎译  名 小小陌生人
◎片  名 The Little Stranger
◎年  代 2018
◎产  地 爱尔兰,英国,法国
◎类  别 剧情 / 悬疑 / 惊悚 / 恐怖
◎语  言 英语
◎上映日期 2018-08-31(美国)
◎IMDb评分  5.5/10 from 7499 users
◎片  长 111分钟
◎导  演 伦尼·阿伯拉罕森 Lenny Abrahamson
◎编  剧 露辛达·考克森 Lucinda Coxon / 莎拉·沃特丝 Sarah Waters
◎主  演 多姆纳尔·格里森 Domhnall Gleeson
       露丝·威尔森 Ruth Wilson
       乔什·迪伦 Josh Dylan
       夏洛特·兰普林 Charlotte Rampling
       威尔·保尔特 Will Poulter
       达伦·肯特 Darren Kent
       凯特·菲利普斯 Kate Phillips
       迪克西·艾格瑞克斯 Dixie Egerickx
       蒂姆· 普莱斯特 Tim Plester
       洛娜·麦克法迪 Lorne MacFadyen
       克里斯·科克森 Chris Coxon
       哈利·海顿-佩顿 Harry Hadden-Paton
       丽芙·希尔 Liv Hill
       奥利弗·泽特斯特姆 Oliver Zetterstr?m
       安·弗班克 Ann Firbank

◎标  签 悬疑 | 英国 | 惊悚 | 2018 | 剧情 | 恐怖 | 改编 | 美国

◎简  介

  根据萨拉·沃特斯同名小说改编,讲述衰败的艾尔斯家族遭受神秘病痛折磨,医生法拉第医生(格里森饰)被要求治疗他们,可令法拉第惊讶的是自己和这家人的命运紧密联系在一起。

◎获奖情况

  第39届伦敦影评人协会奖 ?(2019)
  年度英国/爱尔兰小演员(提名) 丽芙·希尔
Video
ID                                       : 1
Format                                   : AVC
Format/Info                              : Advanced Video Codec
Format settings                          : CABAC / 4 Ref Frames
Format settings, CABAC                   : Yes
Format settings, Reference frames        : 4 frames
Codec ID                                 : V_MPEG4/ISO/AVC
Duration                                 : 1 h 51 min
Bit rate                                 : 8 303 kb/s
Width                                    : 1 920 pixels
Height                                   : 1 040 pixels
Display aspect ratio                     : 1.85:1
Frame rate mode                          : Constant
Frame rate                               : 23.976 (24000/1001/189150) FPS
Color space                              : YUV
Chroma subsampling                       : 4:2:0
Bit depth                                : 8 bits
Scan type                                : Progressive
Bits/(Pixel*Frame)                       : 0.173
Stream size                              : 6.32 GiB (83%)
Writing library                          : x264 core 157 r2935 545de2f
Encoding settings                        : cabac=1 / ref=4 / deblock=1:-3:-3 / analyse=0x3:0x113 / me=umh / subme=8 / psy=1 / psy_rd=1.00:0.00 / mixed_ref=1 / me_range=32 / chroma_me=1 / trellis=2 / 8x8dct=1 / cqm=0 / deadzone=21,11 / fast_pskip=1 / chroma_qp_offset=-2 / threads=32 / lookahead_threads=5 / sliced_threads=0 / nr=0 / decimate=1 / interlaced=0 / bluray_compat=0 / constrained_intra=0 / bframes=3 / b_pyramid=2 / b_adapt=2 / b_bias=0 / direct=3 / weightb=1 / open_gop=0 / weightp=2 / keyint=240 / keyint_min=24 / scenecut=40 / intra_refresh=0 / rc_lookahead=50 / rc=2pass / mbtree=1 / bitrate=8303 / ratetol=1.0 / qcomp=0.60 / qpmin=0 / qpmax=69 / qpstep=4 / cplxblur=20.0 / qblur=0.5 / ip_ratio=1.40 / aq=3:0.80
Default                                  : Yes
Forced                                   : No
Statistics Tags Issue                    : no_variable_data 1970-01-01 00:00:00 / no_variable_data 2010-02-22 21:41:29
FromStats_BitRate                        : 8302409
FromStats_Duration                       : 01:51:38.317000000
FromStats_FrameCount                     : 160599
FromStats_StreamSize                     : 6951521305

Audio
ID                                       : 2
Format                                   : DTS
Format/Info                              : Digital Theater Systems
Codec ID                                 : A_DTS
Duration                                 : 1 h 51 min
Bit rate mode                            : Constant
Bit rate                                 : 1 509 kb/s
Channel(s)                               : 6 channels
Channel layout                           : C L R Ls Rs LFE
Sampling rate                            : 48.0 kHz
Frame rate                               : 93.750 FPS (512 SPF)
Bit depth                                : 24 bits
Compression mode                         : Lossy
Stream size                              : 1.18 GiB (15%)
Language                                 : English
Default                                  : Yes
Forced                                   : No
Statistics Tags Issue                    : no_variable_data 1970-01-01 00:00:00 / no_variable_data 2010-02-22 21:41:29
FromStats_BitRate                        : 1509000
FromStats_Duration                       : 01:51:36.032000000
FromStats_FrameCount                     : 627753
FromStats_StreamSize                     : 1263039036

Text #1
ID                                       : 3
Format                                   : UTF-8
Codec ID                                 : S_TEXT/UTF8
Codec ID/Info                            : UTF-8 Plain Text
Language                                 : English
Default                                  : No
Forced                                   : No
Statistics Tags Issue                    : no_variable_data 1970-01-01 00:00:00 / no_variable_data 2010-02-22 21:41:29
FromStats_BitRate                        : 51
FromStats_Duration                       : 01:40:37.240000000
FromStats_FrameCount                     : 1251
FromStats_StreamSize                     : 38571

Text #2
ID                                       : 4
Format                                   : UTF-8
Codec ID                                 : S_TEXT/UTF8
Codec ID/Info                            : UTF-8 Plain Text
Title                                    : SDH
Language                                 : English
Default                                  : No
Forced                                   : No
Statistics Tags Issue                    : no_variable_data 1970-01-01 00:00:00 / no_variable_data 2010-02-22 21:41:29
FromStats_BitRate                        : 55
FromStats_Duration                       : 01:42:15.004000000
FromStats_FrameCount                     : 1347
FromStats_StreamSize                     : 42246

Menu
00:00:00.000                             : en:Chapter 01
00:06:23.466                             : en:Chapter 02
00:11:16.134                             : en:Chapter 03
00:16:38.706                             : en:Chapter 04
00:21:04.054                             : en:Chapter 05
00:28:01.388                             : en:Chapter 06
00:34:00.163                             : en:Chapter 07
00:40:02.817                             : en:Chapter 08
00:48:41.919                             : en:Chapter 09
00:57:36.453                             : en:Chapter 10
01:03:31.558                             : en:Chapter 11
01:09:03.431                             : en:Chapter 12
01:14:17.953                             : en:Chapter 13
01:18:27.578                             : en:Chapter 14
01:23:05.731                             : en:Chapter 15
01:28:52.994                             : en:Chapter 16
01:32:56.696                             : en:Chapter 17
01:37:19.500                             : en:Chapter 18
01:40:57.468                             : en:Chapter 19
01:43:42.550                             : en:Chapter 20




                                                                                                                                                                                                        
                                                                                                                                                                                                                                          
bbb16f0fdda9c5ad470f1dc04a237b04.zip (78.3 KB, 下载次数: 0)

回复

使用道具 举报

您需要登录后才可以回帖 登录 | 立即注册

本版积分规则

5n电影网  

本网站所有资源来自网络,如无意中侵犯了您的权益,请发邮件至 [email protected],立即清除相关链接

GMT+8, 2020-9-27 18:19 , Processed in 0.097413 second(s), 30 queries .

Powered by Discuz! X3.2

© 2001-2013 Comsenz Inc.

快速回复 返回顶部 返回列表