请选择 进入手机版 | 继续访问电脑版

5n电影网

 找回密码
 立即注册

窥镜/偷窥十号房 Looking.Glass.2018.1080p.BluRay.x264-PSYCHD 7.65GB

[复制链接]
bt电影 发表于 2020-9-15 10:24:57 | 显示全部楼层 |阅读模式
帖子完整标题:窥镜/偷窥十号房 Looking.Glass.2018.1080p.BluRay.x264-PSYCHD 7.65GB




◎译  名 窥镜/偷窥十号房(台)
◎片  名 Looking Glass
◎年  代 2018
◎产  地 美国
◎类  别 惊悚
◎语  言 英语
◎上映日期 2018-02-16(美国)
◎IMDb评分  4.6/10 from 5353 users
◎片  长 103分钟
◎编  剧 杰瑞·拉普 Jerry Rapp / 马修·怀尔德 Matthew Wilder
◎主  演 尼古拉斯·凯奇 Nicolas Cage
       罗宾·汤尼 Robin Tunney
       马克·布鲁卡斯 Marc Blucas
       Ernie Lively
       雅克·格雷 Jacque Gray

◎标  签 惊悚 | 悬疑 | 美国 | 犯罪 | 尼古拉斯凯奇 | 尼古拉斯·凯奇 | 2018 | 美国电影

◎简  介

  尼古拉斯·凯奇出演独立制作惊悚片《窥镜》(Looking Glass,暂译)。导演为曾拍摄多部MV及广告的多里·奥斯科维兹,编剧杰里·莱普、马修·怀尔德。一对夫妇在经历生活伤痛后买下了荒郊僻壤一处汽车旅馆,他们此举是为了探秘旅馆一个房间内发生的一系列无法解释的怪事。影片今秋开机。
Video
ID                                       : 1
Format                                   : AVC
Format/Info                              : Advanced Video Codec
Format settings                          : CABAC / 4 Ref Frames
Format settings, CABAC                   : Yes
Format settings, Reference frames        : 4 frames
Codec ID                                 : V_MPEG4/ISO/AVC
Duration                                 : 1 h 43 min
Bit rate                                 : 9 059 kb/s
Width                                    : 1 920 pixels
Height                                   : 1 080 pixels
Display aspect ratio                     : 16:9
Frame rate mode                          : Constant
Frame rate                               : 23.976 (24000/1001/189150) FPS
Color space                              : YUV
Chroma subsampling                       : 4:2:0
Bit depth                                : 8 bits
Scan type                                : Progressive
Bits/(Pixel*Frame)                       : 0.182
Stream size                              : 6.40 GiB (84%)
Writing library                          : x264 core 155 r2901 7d0ff22
Encoding settings                        : cabac=1 / ref=4 / deblock=1:-3:-3 / analyse=0x3:0x113 / me=umh / subme=8 / psy=1 / psy_rd=1.00:0.00 / mixed_ref=1 / me_range=32 / chroma_me=1 / trellis=1 / 8x8dct=1 / cqm=0 / deadzone=21,11 / fast_pskip=1 / chroma_qp_offset=-2 / threads=24 / lookahead_threads=4 / sliced_threads=0 / nr=0 / decimate=1 / interlaced=0 / bluray_compat=0 / constrained_intra=0 / bframes=3 / b_pyramid=2 / b_adapt=2 / b_bias=0 / direct=3 / weightb=1 / open_gop=0 / weightp=2 / keyint=240 / keyint_min=24 / scenecut=40 / intra_refresh=0 / rc_lookahead=50 / rc=2pass / mbtree=1 / bitrate=9059 / ratetol=1.0 / qcomp=0.60 / qpmin=0 / qpmax=69 / qpstep=4 / cplxblur=20.0 / qblur=0.5 / ip_ratio=1.40 / aq=3:0.80
Default                                  : Yes
Forced                                   : No
Statistics Tags Issue                    : no_variable_data 1970-01-01 00:00:00 / no_variable_data 2010-02-22 21:41:29
FromStats_BitRate                        : 9052072
FromStats_Duration                       : 01:43:38.671000000
FromStats_FrameCount                     : 149099
FromStats_StreamSize                     : 7036482449

Audio
ID                                       : 2
Format                                   : DTS
Format/Info                              : Digital Theater Systems
Codec ID                                 : A_DTS
Duration                                 : 1 h 43 min
Bit rate mode                            : Constant
Bit rate                                 : 1 509 kb/s
Channel(s)                               : 6 channels
Channel layout                           : C L R Ls Rs LFE
Sampling rate                            : 48.0 kHz
Frame rate                               : 93.750 FPS (512 SPF)
Bit depth                                : 24 bits
Compression mode                         : Lossy
Stream size                              : 1.09 GiB (14%)
Language                                 : English
Default                                  : Yes
Forced                                   : No
Statistics Tags Issue                    : no_variable_data 1970-01-01 00:00:00 / no_variable_data 2010-02-22 21:41:29
FromStats_BitRate                        : 1508999
FromStats_Duration                       : 01:43:38.667000000
FromStats_FrameCount                     : 583000
FromStats_StreamSize                     : 1172996000

Text #1
ID                                       : 3
Format                                   : UTF-8
Codec ID                                 : S_TEXT/UTF8
Codec ID/Info                            : UTF-8 Plain Text
Language                                 : English
Default                                  : No
Forced                                   : No
Statistics Tags Issue                    : no_variable_data 1970-01-01 00:00:00 / no_variable_data 2010-02-22 21:41:29
FromStats_BitRate                        : 40
FromStats_Duration                       : 01:37:48.571000000
FromStats_FrameCount                     : 870
FromStats_StreamSize                     : 29564

Text #2
ID                                       : 4
Format                                   : UTF-8
Codec ID                                 : S_TEXT/UTF8
Codec ID/Info                            : UTF-8 Plain Text
Title                                    : SDH
Language                                 : English
Default                                  : No
Forced                                   : No
Statistics Tags Issue                    : no_variable_data 1970-01-01 00:00:00 / no_variable_data 2010-02-22 21:41:29
FromStats_BitRate                        : 41
FromStats_Duration                       : 01:42:13.002000000
FromStats_FrameCount                     : 974
FromStats_StreamSize                     : 31780

Menu
00:00:00.000                             : en:00:00:00.000
00:04:18.675                             : en:00:04:18.675
00:10:04.646                             : en:00:10:04.646
00:17:02.813                             : en:00:17:02.813
00:24:42.356                             : en:00:24:42.356
00:32:08.844                             : en:00:32:08.844
00:40:34.432                             : en:00:40:34.432
00:45:33.648                             : en:00:45:33.648
00:53:29.873                             : en:00:53:29.873
01:01:07.289                             : en:01:01:07.289
01:05:08.154                             : en:01:05:08.154
01:10:39.152                             : en:01:10:39.152
01:18:03.137                             : en:01:18:03.137
01:27:03.927                             : en:01:27:03.927
01:32:52.817                             : en:01:32:52.817
01:40:57.510                             : en:01:40:57.510




                                                                                                                                                                                                        
                                                                                                                                                                                                                                          
0623f3f3b9513b2d627d3a0b3bcf602d.zip (78.06 KB, 下载次数: 0)

回复

使用道具 举报

您需要登录后才可以回帖 登录 | 立即注册

本版积分规则

5n电影网  

本网站所有资源来自网络,如无意中侵犯了您的权益,请发邮件至 [email protected],立即清除相关链接

GMT+8, 2020-9-27 18:16 , Processed in 0.104354 second(s), 30 queries .

Powered by Discuz! X3.2

© 2001-2013 Comsenz Inc.

快速回复 返回顶部 返回列表