请选择 进入手机版 | 继续访问电脑版

5n电影网

 找回密码
 立即注册

怀旧 Nostalgia.2018.1080p.BluRay.x264-PSYCHD 7.67GB

[复制链接]
bt电影 发表于 2020-9-16 10:35:48 | 显示全部楼层 |阅读模式
帖子完整标题:怀旧 Nostalgia.2018.1080p.BluRay.x264-PSYCHD 7.67GB




◎译  名 怀旧
◎片  名 Nostalgia
◎年  代 2018
◎产  地 美国
◎类  别 剧情
◎语  言 英语
◎上映日期 2018-02-16(美国)
◎IMDb评分  5.5/10 from 1012 users
◎片  长 114分钟
◎导  演 马克·佩灵顿 Mark Pellington
◎编  剧 马克·佩灵顿 Mark Pellington / 亚历克斯·罗斯·派瑞 Alex Ross Perry
◎主  演 乔恩·哈姆 Jon Hamm
       爱波·塔布琳 Amber Tamblyn
       尼克·奥弗曼 Nick Offerman
       詹姆斯·勒格罗 James LeGros
       帕顿·奥斯瓦尔特 Patton Oswalt
       凯瑟琳·基纳 Catherine Keener
       艾伦·伯斯汀 Ellen Burstyn
       布鲁斯·邓恩 Bruce Dern
       米奇·麦迪森 Mikey Madison
       安娜丽丝·巴索 Annalise Basso
       乔安娜·高茵 Joanna Going
       丹德里·泰勒 Dendrie Taylor
       阿尔耶·格罗斯 Arye Gross
       约翰·奥提兹 John Ortiz

◎标  签 美国 | 2018 | 文艺 | 家庭 | 人生 | 剧情 | 美国电影 | 电影

◎简  介

  讲述一群人因生命中各有损失而生活互相关联。
Video
ID                                       : 1
Format                                   : AVC
Format/Info                              : Advanced Video Cod
Format settings                          : CABAC / 5 Ref Frames
Format settings, CABAC                   : Yes
Format settings, Reference frames        : 5 frames
Codec ID                                 : V_MPEG4/ISO/AVC
Duration                                 : 1 h 54 min
Bit rate                                 : 8 068 kb/s
Width                                    : 1 920 pixels
Height                                   : 800 pixels
Display aspect ratio                     : 2.40:1
Frame rate mode                          : Constant
Frame rate                               : 23.976 (24000/1001/189150) FPS
Color space                              : YUV
Chroma subsampling                       : 4:2:0
Bit depth                                : 8 bits
Scan type                                : Progressive
Bits/(Pixel*Frame)                       : 0.219
Stream size                              : 6.29 GiB (82%)
Writing library                          : x264 core 155 r2901 7d0ff22
Encoding settings                        : cabac=1 / ref=5 / deblock=1:-3:-3 / analyse=0x3:0x113 / me=umh / subme=8 / psy=1 / psy_rd=1.00:0.00 / mixed_ref=1 / me_range=32 / chroma_me=1 / trellis=1 / 8x8dct=1 / cqm=0 / deadzone=21,11 / fast_pskip=1 / chroma_qp_offset=-2 / threads=24 / lookahead_threads=4 / sliced_threads=0 / nr=0 / decimate=1 / interlaced=0 / bluray_compat=0 / constrained_intra=0 / bframes=3 / b_pyramid=2 / b_adapt=2 / b_bias=0 / direct=3 / weightb=1 / open_gop=0 / weightp=2 / keyint=240 / keyint_min=24 / scenecut=40 / intra_refresh=0 / rc_lookahead=50 / rc=2pass / mbtree=1 / bitrate=8068 / ratetol=1.0 / qcomp=0.60 / qpmin=0 / qpmax=69 / qpstep=4 / cplxblur=20.0 / qblur=0.5 / ip_ratio=1.40 / aq=3:0.80
Default                                  : Yes
Forced                                   : No
Statistics Tags Issue                    : no_variable_data 1970-01-01 00:00:00 / no_variable_data 2010-02-22 21:41:29
FromStats_BitRate                        : 8066149
FromStats_Duration                       : 01:54:21.855000000
FromStats_FrameCount                     : 164520
FromStats_StreamSize                     : 6918593518

Audio
ID                                       : 2
Format                                   : DTS
Format/Info                              : Digital Theater Systems
Codec ID                                 : A_DTS
Duration                                 : 1 h 54 min
Bit rate mode                            : Constant
Bit rate                                 : 1 509 kb/s
Channel(s)                               : 6 channels
Channel layout                           : C L R Ls Rs LFE
Sampling rate                            : 48.0 kHz
Frame rate                               : 93.750 FPS (512 SPF)
Bit depth                                : 24 bits
Compression mode                         : Lossy
Stream size                              : 1.21 GiB (16%)
Language                                 : English
Default                                  : Yes
Forced                                   : No
Statistics Tags Issue                    : no_variable_data 1970-01-01 00:00:00 / no_variable_data 2010-02-22 21:41:29
FromStats_BitRate                        : 1509000
FromStats_Duration                       : 01:54:21.856000000
FromStats_FrameCount                     : 643299
FromStats_StreamSize                     : 1294317588

Text #1
ID                                       : 3
Format                                   : UTF-8
Codec ID                                 : S_TEXT/UTF8
Codec ID/Info                            : UTF-8 Plain Text
Language                                 : English
Default                                  : No
Forced                                   : No
Statistics Tags Issue                    : no_variable_data 1970-01-01 00:00:00 / no_variable_data 2010-02-22 21:41:29
FromStats_BitRate                        : 47
FromStats_Duration                       : 01:47:36.200000000
FromStats_FrameCount                     : 1163
FromStats_StreamSize                     : 38348

Text #2
ID                                       : 4
Format                                   : UTF-8
Codec ID                                 : S_TEXT/UTF8
Codec ID/Info                            : UTF-8 Plain Text
Title                                    : SDH
Language                                 : English
Default                                  : No
Forced                                   : No
Statistics Tags Issue                    : no_variable_data 1970-01-01 00:00:00 / no_variable_data 2010-02-22 21:41:29
FromStats_BitRate                        : 49
FromStats_Duration                       : 01:47:36.200000000
FromStats_FrameCount                     : 1244
FromStats_StreamSize                     : 40068

Menu
00:00:00.000                             : en:00:00:00.000
00:03:03.058                             : en:00:03:03.058
00:09:13.636                             : en:00:09:13.636
00:15:57.957                             : en:00:15:57.957
00:23:58.896                             : en:00:23:58.896
00:31:48.657                             : en:00:31:48.657
00:37:44.429                             : en:00:37:44.429
00:41:56.556                             : en:00:41:56.556
00:45:10.583                             : en:00:45:10.583
00:54:01.864                             : en:00:54:01.864
00:58:39.433                             : en:00:58:39.433
01:02:24.366                             : en:01:02:24.366
01:07:24.707                             : en:01:07:24.707
01:13:09.302                             : en:01:13:09.302
01:18:40.799                             : en:01:18:40.799
01:23:19.661                             : en:01:23:19.661
01:30:11.740                             : en:01:30:11.740
01:37:47.403                             : en:01:37:47.403
01:41:30.751                             : en:01:41:30.751
01:48:28.001                             : en:01:48:28.001




                                                                                                                                                                                                        
                                                                                                                                                                                                                                          
b5a5d35e3e3a847b8cab5e6ce9ff2de1.zip (78.16 KB, 下载次数: 0)

回复

使用道具 举报

您需要登录后才可以回帖 登录 | 立即注册

本版积分规则

5n电影网  

本网站所有资源来自网络,如无意中侵犯了您的权益,请发邮件至 [email protected],立即清除相关链接

GMT+8, 2020-9-27 18:34 , Processed in 0.119354 second(s), 30 queries .

Powered by Discuz! X3.2

© 2001-2013 Comsenz Inc.

快速回复 返回顶部 返回列表