请选择 进入手机版 | 继续访问电脑版

5n电影网

 找回密码
 立即注册

现在去见你 Be.with.You.2018.KOREAN.1080p.BluRay.x264.DTS-FGT 11.99GB

[复制链接]
电影bt 发表于 2020-9-16 10:35:48 | 显示全部楼层 |阅读模式
帖子完整标题:现在去见你 Be.with.You.2018.KOREAN.1080p.BluRay.x264.DTS-FGT 11.99GB




◎译  名 现在去见你/Be with You/借着雨点说爱你(港)/现在,很想见你/雨你再次相遇(台)
◎片  名 ?? ??? ???
◎年  代 2018
◎产  地 韩国
◎类  别 剧情 / 爱情 / 奇幻
◎语  言 韩语
◎上映日期 2018-03-14(韩国)
◎IMDb评分  7.7/10 from 3516 users
◎片  长 132分钟
◎导  演 李章焄 Jang-Hoon Lee
◎编  剧 李章焄 Jang-Hoon Lee / 姜秀贞 Soo-Jine Kang / 市川拓司 Takuji Ichikawa
◎主  演 苏志燮 Ji-seob So
       孙艺珍 Ye-jin Son
       金智焕 Ji-hwan Kim
       金贤秀 Hyun-su Kim
       李有镇 Lee You-jin
       高昌锡 Chang-Seok Ko
       李俊赫 Joon-Hyuk Lee
       孙云恩 Yeo-eun Sohn
       裴侑蓝 Bae Yoo-ram
       郑西仁 Seo-In Jeong
       申禹熙 Sin Woo-hee
       韩在河 Jae-ha Han
       李胜浚 Seung joon Lee
       赵河硕 Ha-suk Jo
       孔晓振 Hyo-jin Kong
       朴叙俊 Seo-Joon Park
       徐正妍 Seo Jung-yeon
       甘素贤 So-Hyun Gam

◎标  签 爱情 | 韩国 | 温情 | 感人 | 治愈 | 亲情 | 奇幻 | 纯爱

◎简  介

  本片根据市川拓司小说《相约在雨季》改编,讲述男子(苏志燮饰)的妻子秀雅(孙艺珍饰)去世前告诉他,自己将在下一个雨季回来。果不其然,雨季来临之际,妻子如约而至。可奇怪的是,妻子似乎忘记了他和家庭。影片预计明年上映。

◎获奖情况

  第54届百想艺术大赏 ?(2018)
  电影类最佳女主角(提名) 孙艺珍
  
  第5届豆瓣电影年度榜单 ?(2018)
  评分最高的韩国电影(提名)
  评分最高的爱情片(提名)
Video
ID                                       : 1
Format                                   : AVC
Format/Info                              : Advanced Video Codec
Format settings                          : CABAC / 4 Ref Frames
Format settings, CABAC                   : Yes
Format settings, Reference frames        : 4 frames
Codec ID                                 : V_MPEG4/ISO/AVC
Duration                                 : 2 h 12 min
Bit rate                                 : 11.5 Mb/s
Width                                    : 1 920 pixels
Height                                   : 804 pixels
Display aspect ratio                     : 2.40:1
Frame rate mode                          : Constant
Frame rate                               : 23.976 (24000/1001/189150) FPS
Color space                              : YUV
Chroma subsampling                       : 4:2:0
Bit depth                                : 8 bits
Scan type                                : Progressive
Bits/(Pixel*Frame)                       : 0.311
Stream size                              : 10.6 GiB (88%)
Title                                    : Be.with.You.2018.KOREAN.1080p.BluRay.x264.DTS-FGT
Writing library                          : x264 core 148 r2795M aaa9aa8
Encoding settings                        : cabac=1 / ref=4 / deblock=1:-2:-2 / analyse=0x3:0x113 / me=umh / subme=9 / psy=1 / psy_rd=1.00:0.15 / mixed_ref=1 / me_range=16 / chroma_me=1 / trellis=2 / 8x8dct=1 / cqm=0 / deadzone=21,11 / fast_pskip=1 / chroma_qp_offset=-3 / threads=24 / lookahead_threads=3 / sliced_threads=0 / nr=0 / decimate=1 / interlaced=0 / bluray_compat=0 / constrained_intra=0 / bframes=3 / b_pyramid=2 / b_adapt=1 / b_bias=0 / direct=3 / weightb=1 / open_gop=0 / weightp=2 / keyint=250 / keyint_min=25 / scenecut=40 / intra_refresh=0 / rc_lookahead=50 / rc=2pass / mbtree=1 / bitrate=11500 / ratetol=1.0 / qcomp=0.60 / qpmin=0 / qpmax=69 / qpstep=4 / cplxblur=20.0 / qblur=0.5 / vbv_maxrate=31250 / vbv_bufsize=31250 / nal_hrd=none / filler=0 / ip_ratio=1.40 / aq=1:1.00
Language                                 : English
Default                                  : Yes
Forced                                   : No

Audio
ID                                       : 2
Format                                   : DTS
Format/Info                              : Digital Theater Systems
Codec ID                                 : A_DTS
Duration                                 : 2 h 12 min
Bit rate mode                            : Constant
Bit rate                                 : 1 509 kb/s
Channel(s)                               : 6 channels
Channel layout                           : C L R Ls Rs LFE
Sampling rate                            : 48.0 kHz
Frame rate                               : 93.750 FPS (512 SPF)
Bit depth                                : 24 bits
Compression mode                         : Lossy
Stream size                              : 1.39 GiB (12%)
Title                                    : Be.with.You.2018.KOREAN.1080p.BluRay.x264.DTS-FGT
Language                                 : Korean
Default                                  : No
Forced                                   : No

Text
ID                                       : 3
Format                                   : UTF-8
Codec ID                                 : S_TEXT/UTF8
Codec ID/Info                            : UTF-8 Plain Text
Duration                                 : 2 h 7 min
Bit rate                                 : 31 b/s
Count of elements                        : 1301
Stream size                              : 29.8 KiB (0%)
Language                                 : English
Default                                  : Yes
Forced                                   : Yes

Menu
00:00:00.000                             : en:Chapter 01
00:12:04.265                             : en:Chapter 02
00:21:50.809                             : en:Chapter 03
00:33:21.124                             : en:Chapter 04
00:45:56.378                             : en:Chapter 05
00:55:13.643                             : en:Chapter 06
01:04:31.701                             : en:Chapter 07
01:16:14.653                             : en:Chapter 08
01:25:31.626                             : en:Chapter 09
01:33:00.408                             : en:Chapter 10
01:44:12.537                             : en:Chapter 11
01:55:27.837                             : en:Chapter 12




                                                                                                                                                                                                        


c8308740011497fae77de0e61238b938.zip (61.42 KB, 下载次数: 0)

回复

使用道具 举报

您需要登录后才可以回帖 登录 | 立即注册

本版积分规则

5n电影网  

本网站所有资源来自网络,如无意中侵犯了您的权益,请发邮件至 [email protected],立即清除相关链接

GMT+8, 2020-9-27 18:43 , Processed in 0.303246 second(s), 30 queries .

Powered by Discuz! X3.2

© 2001-2013 Comsenz Inc.

快速回复 返回顶部 返回列表