请选择 进入手机版 | 继续访问电脑版

5n电影网

 找回密码
 立即注册

[4K-原盘] 龙虎少年队2 22.Jump.Street.2014.2160p.BluRay.REMUX.HEVC.DTS-HD.MA.TrueHD...

[复制链接]
高清bt 发表于 2020-9-16 10:41:24 | 显示全部楼层 |阅读模式
帖子完整标题:龙虎少年队2 22.Jump.Street.2014.2160p.BluRay.REMUX.HEVC.DTS-HD.MA.TrueHD.7.1.Atmos-FGT 65.23GB




◎译  名 龙虎少年队2/21 Jump Street 2/囧探出更(港)/龙虎少年队:童颜巨捕(台)
◎片  名 22 Jump Street
◎年  代 2014
◎产  地 美国
◎类  别 喜剧 / 动作 / 犯罪
◎语  言 英语
◎上映日期 2014-06-13(美国)
◎片  长 112分钟
◎导  演 菲尔·罗德 Phil Lord / 克里斯托弗·米勒 Christopher Miller
◎编  剧 迈克尔·巴考尔 Michael Bacall / 奥伦·尤济尔 Oren Uziel / 罗德尼·罗斯曼 Rodney Rothman / 乔纳·希尔 Jonah Hill
◎主  演 乔纳·希尔 Jonah Hill
       查宁·塔图姆 Channing Tatum
       彼得·斯特曼 Peter Stormare
       怀亚特·罗素 Wyatt Russell
       艾波·斯蒂文斯 Amber Stevens
       吉莉恩·贝尔 Jillian Bell
       艾斯·库珀 Ice Cube
       尼克·奥弗曼 Nick Offerman
       吉米·塔特罗 Jimmy Tatro
       卡罗琳·阿隆 Caroline Aaron
       克雷格·罗伯兹 Craig Roberts
       马克·埃文·杰克逊 Marc Evan Jackson
       乔·克里斯特 Joe Chrest
       埃迪·J.费尔南德斯 Eddie J. Fernandez
       泰勒·福雷斯特 Tyler Forrest
       罗伯·里格尔 Rob Riggle
       徐海为 Haiwei Xu
       戴夫·弗兰科 Dave Franco
       德克斯·弗拉姆 Dax Flame
       理查德·格里克 Richard Grieco
       奎恩·拉提法 Queen Latifah
       库尔特·克劳斯 Kurt Krause
       托比·尼克尔斯 Toby Nichols
       阮春智 Dustin Nguyen
       塞斯·罗根 Seth Rogen
       安娜·法瑞丝 Anna Faris

◎标  签 喜剧 | 美国 | 动作 | 搞笑 | 2014 | 犯罪 | 好基友 | 校园

◎简  介

  故事紧接着上一部继续发展。延科(查宁·塔图姆 Channing Tatum 饰)和施密特(乔纳·希尔 Jonah Hill 饰)好不容易从高中“顺利毕业”,等待着他们的,却是又一轮卧底行动,这一次,他们要挑战的对象是“大学”。和高中相比,大学里人际关系的复杂程度和课业难度都要更上一层楼,这一次,兄弟两人能够顺利完成任务吗?
  
  在学园中,延科加入了校足球队,结识了一帮志同道合的好友,与此同时,施密特选择就读艺术系,与古灵精怪的玛雅(安珀·史蒂芬斯 Amber Stevens 饰)发生了一段浪漫轶事。然而,丰富精彩的大学生活令密不可分的延科和施密特之间产生了裂痕,这裂痕之巨大很可能导致患难与共的两人最终分道扬镳。

◎获奖情况

  第16届美国青少年选择奖 ?(2014)
  最佳突破表演电影新星(提名) 怀亚特·罗素
  最佳银幕拍档(提名) 查宁·塔图姆?/?乔纳·希尔
  ChoiceMovie:HissyFit 乔纳·希尔
  ChoiceMovie:HissyFit(提名) 艾斯·库珀
  最佳暑期电影
  最佳暑期电影明星 查宁·塔图姆
  最佳暑期电影明星(提名) 乔纳·希尔
[quote]Video
ID                                       : 1
ID in the original source medium         : 4113 (0x1011)
Format                                   : HEVC
Format/Info                              : High Efficiency Video Coding
HDR format                               : SMPTE ST 2086, HDR10 compatible
Codec ID                                 : V_MPEGH/ISO/HEVC
Duration                                 : 1 h 51 min
Bit rate                                 : 56.5 Mb/s
Width                                    : 3 840 pixels
Height                                   : 2 160 pixels
Display aspect ratio                     : 16:9
Frame rate mode                          : Constant
Frame rate                               : 23.976 (24000/1001/189150) FPS
Color space                              : YUV
Chroma subsampling                       : 4:2:0 (Type 2)
Bit depth                                : 10 bits
Bits/(Pixel*Frame)                       : 0.284
Stream size                              : 44.2 GiB (68%)
Title                                    : 22.Jump.Street.2014.2160p.BluRay.REMUX.HEVC.DTS-HD.MA.TrueHD.7.1.Atmos-FGT
Language                                 : English
Default                                  : No
Forced                                   : No
Color range                              : Limited
Color primaries                          : BT.2020
Transfer characteristics                 : PQ
Matrix coefficients                      : BT.2020 non-constant
Mastering display color primaries        : Display P3
Mastering display luminance              : min: 0.0050 cd/m2, max: 4000 cd/m2
Maximum Content Light Level              : 3629 cd/m2
Maximum Frame-Average Light Level        : 527 cd/m2
Original source medium                   : Blu-ray

Audio #1
ID                                       : 2
ID in the original source medium         : 4352 (0x1100)
Format                                   : MLP FBA 16-ch
Format/Info                              : Meridian Lossless Packing FBA with 16-channel presentation
Commercial name                          : Dolby TrueHD with Dolby Atmos
Codec ID                                 : A_TRUEHD
Duration                                 : 1 h 51 min
Bit rate mode                            : Variable
Bit rate                                 : 2 725 kb/s
Maximum bit rate                         : 3 879 kb/s
Channel(s)                               : 8 channels
Channel layout                           : L R C LFE Ls Rs Lb Rb
Sampling rate                            : 48.0 kHz
Frame rate                               : 1 200.000 FPS (40 SPF)
Compression mode                         : Lossless
Stream size                              : 2.13 GiB (3%)
Title                                    : 22.Jump.Street.2014.2160p.BluRay.REMUX.HEVC.DTS-HD.MA.TrueHD.7.1.Atmos-FGT
Language                                 : English
Default                                  : Yes
Forced                                   : No
Original source medium                   : Blu-ray
Number of dynamic objects                : 11
Bed channel count                        : 1 channel
Bed channel configuration                : LFE

Audio #2
ID                                       : 3
Format                                   : DTS XLL
Format/Info                              : Digital Theater Systems
Commercial name                          : DTS-HD Master Audio
Codec ID                                 : A_DTS
Duration                                 : 1 h 51 min
Bit rate mode                            : Variable
Bit rate                                 : 4 086 kb/s
Channel(s)                               : 8 channels
Channel layout                           : C L R LFE Lb Rb Lss Rss
Sampling rate                            : 48.0 kHz
Frame rate                               : 93.750 FPS (512 SPF)
Bit depth                                : 24 bits
Compression mode                         : Lossless
Stream size                              : 3.19 GiB (5%)
Title                                    : 22.Jump.Street.2014.2160p.BluRay.REMUX.HEVC.DTS-HD.MA.TrueHD.7.1.Atmos-FGT
Language                                 : English
Default                                  : No
Forced                                   : No

Audio #3
ID                                       : 4
ID in the original source medium         : 4352 (0x1100)
Format                                   : AC-3
Format/Info                              : Audio Coding 3
Commercial name                          : Dolby Digital
Codec ID                                 : A_AC3
Duration                                 : 1 h 51 min
Bit rate mode                            : Constant
Bit rate                                 : 640 kb/s
Channel(s)                               : 6 channels
Channel layout                           : L R C LFE Ls Rs
Sampling rate                            : 48.0 kHz
Frame rate                               : 31.250 FPS (1536 SPF)
Compression mode                         : Lossy
Stream size                              : 512 MiB (1%)
Title                                    : 22.Jump.Street.2014.2160p.BluRay.REMUX.HEVC.DTS-HD.MA.TrueHD.7.1.Atmos-FGT
Language                                 : English
Service kind                             : Complete Main
Default                                  : No
Forced                                   : No
Original source medium                   : Blu-ray

Audio #4
ID                                       : 5
ID in the original source medium         : 4354 (0x1102)
Format                                   : AC-3
Format/Info                              : Audio Coding 3
Commercial name                          : Dolby Digital
Codec ID                                 : A_AC3
Duration                                 : 1 h 51 min
Bit rate mode                            : Constant
Bit rate                                 : 640 kb/s
Channel(s)                               : 6 channels
Channel layout                           : L R C LFE Ls Rs
Sampling rate                            : 48.0 kHz
Frame rate                               : 31.250 FPS (1536 SPF)
Compression mode                         : Lossy
Stream size                              : 512 MiB (1%)
Title                                    : 22.Jump.Street.2014.2160p.BluRay.REMUX.HEVC.DTS-HD.MA.TrueHD.7.1.Atmos-FGT
Language                                 : English
Service kind                             : Complete Main
Default                                  : No
Forced                                   : No
Original source medium                   : Blu-ray

Audio #5
ID                                       : 6
ID in the original source medium         : 4355 (0x1103)
Format                                   : AC-3
Format/Info                              : Audio Coding 3
Commercial name                          : Dolby Digital
Codec ID                                 : A_AC3
Duration                                 : 1 h 51 min
Bit rate mode                            : Constant
Bit rate                                 : 640 kb/s
Channel(s)                               : 6 channels
Channel layout                           : L R C LFE Ls Rs
Sampling rate                            : 48.0 kHz
Frame rate                               : 31.250 FPS (1536 SPF)
Compression mode                         : Lossy
Stream size                              : 512 MiB (1%)
Title                                    : 22.Jump.Street.2014.2160p.BluRay.REMUX.HEVC.DTS-HD.MA.TrueHD.7.1.Atmos-FGT
Language                                 : English
Service kind                             : Complete Main
Default                                  : No
Forced                                   : No
Original source medium                   : Blu-ray

Audio #6
ID                                       : 7
ID in the original source medium         : 4356 (0x1104)
Format                                   : AC-3
Format/Info                              : Audio Coding 3
Commercial name                          : Dolby Digital
Codec ID                                 : A_AC3
Duration                                 : 1 h 51 min
Bit rate mode                            : Constant
Bit rate                                 : 640 kb/s
Channel(s)                               : 6 channels
Channel layout                           : L R C LFE Ls Rs
Sampling rate                            : 48.0 kHz
Frame rate                               : 31.250 FPS (1536 SPF)
Compression mode                         : Lossy
Stream size                              : 512 MiB (1%)
Title                                    : 22.Jump.Street.2014.2160p.BluRay.REMUX.HEVC.DTS-HD.MA.TrueHD.7.1.Atmos-FGT
Language                                 : Czech
Service kind                             : Complete Main
Default                                  : No
Forced                                   : No
Original source medium                   : Blu-ray

Audio #7
ID                                       : 8
ID in the original source medium         : 4357 (0x1105)
Format                                   : DTS XLL
Format/Info                              : Digital Theater Systems
Commercial name                          : DTS-HD Master Audio
Codec ID                                 : A_DTS
Duration                                 : 1 h 51 min
Bit rate mode                            : Variable
Bit rate                                 : 2 319 kb/s
Channel(s)                               : 6 channels
Channel layout                           : C L R Ls Rs LFE
Sampling rate                            : 48.0 kHz
Frame rate                               : 93.750 FPS (512 SPF)
Bit depth                                : 16 bits
Compression mode                         : Lossless
Stream size                              : 1.81 GiB (3%)
Title                                    : 22.Jump.Street.2014.2160p.BluRay.REMUX.HEVC.DTS-HD.MA.TrueHD.7.1.Atmos-FGT
Language                                 : French
Default                                  : No
Forced                                   : No
Original source medium                   : Blu-ray

Audio #8
ID                                       : 9
ID in the original source medium         : 4358 (0x1106)
Format                                   : AC-3
Format/Info                              : Audio Coding 3
Commercial name                          : Dolby Digital
Codec ID                                 : A_AC3
Duration                                 : 1 h 51 min
Bit rate mode                            : Constant
Bit rate                                 : 640 kb/s
Channel(s)                               : 6 channels
Channel layout                           : L R C LFE Ls Rs
Sampling rate                            : 48.0 kHz
Frame rate                               : 31.250 FPS (1536 SPF)
Compression mode                         : Lossy
Stream size                              : 512 MiB (1%)
Title                                    : 22.Jump.Street.2014.2160p.BluRay.REMUX.HEVC.DTS-HD.MA.TrueHD.7.1.Atmos-FGT
Language                                 : French
Service kind                             : Complete Main
Default                                  : No
Forced                                   : No
Original source medium                   : Blu-ray

Audio #9
ID                                       : 10
ID in the original source medium         : 4359 (0x1107)
Format                                   : DTS XLL
Format/Info                              : Digital Theater Systems
Commercial name                          : DTS-HD Master Audio
Codec ID                                 : A_DTS
Duration                                 : 1 h 51 min
Bit rate mode                            : Variable
Bit rate                                 : 2 314 kb/s
Channel(s)                               : 6 channels
Channel layout                           : C L R Ls Rs LFE
Sampling rate                            : 48.0 kHz
Frame rate                               : 93.750 FPS (512 SPF)
Bit depth                                : 16 bits
Compression mode                         : Lossless
Stream size                              : 1.81 GiB (3%)
Title                                    : 22.Jump.Street.2014.2160p.BluRay.REMUX.HEVC.DTS-HD.MA.TrueHD.7.1.Atmos-FGT
Language                                 : German
Default                                  : No
Forced                                   : No
Original source medium                   : Blu-ray

Audio #10
ID                                       : 11
ID in the original source medium         : 4360 (0x1108)
Format                                   : AC-3
Format/Info                              : Audio Coding 3
Commercial name                          : Dolby Digital
Codec ID                                 : A_AC3
Duration                                 : 1 h 51 min
Bit rate mode                            : Constant
Bit rate                                 : 640 kb/s
Channel(s)                               : 6 channels
Channel layout                           : L R C LFE Ls Rs
Sampling rate                            : 48.0 kHz
Frame rate                               : 31.250 FPS (1536 SPF)
Compression mode                         : Lossy
Stream size                              : 512 MiB (1%)
Title                                    : 22.Jump.Street.2014.2160p.BluRay.REMUX.HEVC.DTS-HD.MA.TrueHD.7.1.Atmos-FGT
Language                                 : Hungarian
Service kind                             : Complete Main
Default                                  : No
Forced                                   : No
Original source medium                   : Blu-ray

Audio #11
ID                                       : 12
ID in the original source medium         : 4361 (0x1109)
Format                                   : DTS XLL
Format/Info                              : Digital Theater Systems
Commercial name                          : DTS-HD Master Audio
Codec ID                                 : A_DTS
Duration                                 : 1 h 51 min
Bit rate mode                            : Variable
Bit rate                                 : 2 303 kb/s
Channel(s)                               : 6 channels
Channel layout                           : C L R Ls Rs LFE
Sampling rate                            : 48.0 kHz
Frame rate                               : 93.750 FPS (512 SPF)
Bit depth                                : 16 bits
Compression mode                         : Lossless
Stream size                              : 1.80 GiB (3%)
Title                                    : 22.Jump.Street.2014.2160p.BluRay.REMUX.HEVC.DTS-HD.MA.TrueHD.7.1.Atmos-FGT
Language                                 : Italian
Default                                  : No
Forced                                   : No
Original source medium                   : Blu-ray

Audio #12
ID                                       : 13
ID in the original source medium         : 4362 (0x110A)
Format                                   : AC-3
Format/Info                              : Audio Coding 3
Commercial name                          : Dolby Digital
Codec ID                                 : A_AC3
Duration                                 : 1 h 51 min
Bit rate mode                            : Constant
Bit rate                                 : 640 kb/s
Channel(s)                               : 6 channels
Channel layout                           : L R C LFE Ls Rs
Sampling rate                            : 48.0 kHz
Frame rate                               : 31.250 FPS (1536 SPF)
Compression mode                         : Lossy
Stream size                              : 512 MiB (1%)
Title                                    : 22.Jump.Street.2014.2160p.BluRay.REMUX.HEVC.DTS-HD.MA.TrueHD.7.1.Atmos-FGT
Language                                 : Polish
Service kind                             : Complete Main
Default                                  : No
Forced                                   : No
Original source medium                   : Blu-ray

Audio #13
ID                                       : 14
ID in the original source medium         : 4363 (0x110B)
Format                                   : DTS XLL
Format/Info                              : Digital Theater Systems
Commercial name                          : DTS-HD Master Audio
Codec ID                                 : A_DTS
Duration                                 : 1 h 51 min
Bit rate mode                            : Variable
Bit rate                                 : 2 363 kb/s
Channel(s)                               : 6 channels
Channel layout                           : C L R Ls Rs LFE
Sampling rate                            : 48.0 kHz
Frame rate                               : 93.750 FPS (512 SPF)
Bit depth                                : 16 bits
Compression mode                         : Lossless
Stream size                              : 1.85 GiB (3%)
Title                                    : 22.Jump.Street.2014.2160p.BluRay.REMUX.HEVC.DTS-HD.MA.TrueHD.7.1.Atmos-FGT
Language                                 : Portuguese
Default                                  : No
Forced                                   : No
Original source medium                   : Blu-ray

Audio #14
ID                                       : 15
ID in the original source medium         : 4364 (0x110C)
Format                                   : AC-3
Format/Info                              : Audio Coding 3
Commercial name                          : Dolby Digital
Codec ID                                 : A_AC3
Duration                                 : 1 h 51 min
Bit rate mode                            : Constant
Bit rate                                 : 640 kb/s
Channel(s)                               : 6 channels
Channel layout                           : L R C LFE Ls Rs
Sampling rate                            : 48.0 kHz
Frame rate                               : 31.250 FPS (1536 SPF)
Compression mode                         : Lossy
Stream size                              : 512 MiB (1%)
Title                                    : 22.Jump.Street.2014.2160p.BluRay.REMUX.HEVC.DTS-HD.MA.TrueHD.7.1.Atmos-FGT
Language                                 : Russian
Service kind                             : Complete Main
Default                                  : No
Forced                                   : No
Original source medium                   : Blu-ray

Audio #15
ID                                       : 16
ID in the original source medium         : 4365 (0x110D)
Format                                   : DTS XLL
Format/Info                              : Digital Theater Systems
Commercial name                          : DTS-HD Master Audio
Codec ID                                 : A_DTS
Duration                                 : 1 h 51 min
Bit rate mode                            : Variable
Bit rate                                 : 2 320 kb/s
Channel(s)                               : 6 channels
Channel layout                           : C L R Ls Rs LFE
Sampling rate                            : 48.0 kHz
Frame rate                               : 93.750 FPS (512 SPF)
Bit depth                                : 16 bits
Compression mode                         : Lossless
Stream size                              : 1.81 GiB (3%)
Title                                    : 22.Jump.Street.2014.2160p.BluRay.REMUX.HEVC.DTS-HD.MA.TrueHD.7.1.Atmos-FGT
Language                                 : Spanish
Default                                  : No
Forced                                   : No
Original source medium                   : Blu-ray

Audio #16
ID                                       : 17
ID in the original source medium         : 4366 (0x110E)
Format                                   : AC-3
Format/Info                              : Audio Coding 3
Commercial name                          : Dolby Digital
Codec ID                                 : A_AC3
Duration                                 : 1 h 51 min
Bit rate mode                            : Constant
Bit rate                                 : 640 kb/s
Channel(s)                               : 6 channels
Channel layout                           : L R C LFE Ls Rs
Sampling rate                            : 48.0 kHz
Frame rate                               : 31.250 FPS (1536 SPF)
Compression mode                         : Lossy
Stream size                              : 512 MiB (1%)
Title                                    : 22.Jump.Street.2014.2160p.BluRay.REMUX.HEVC.DTS-HD.MA.TrueHD.7.1.Atmos-FGT
Language                                 : Spanish
Service kind                             : Complete Main
Default                                  : No
Forced                                   : No
Original source medium                   : Blu-ray

Audio #17
ID                                       : 18
ID in the original source medium         : 4367 (0x110F)
Format                                   : AC-3
Format/Info                              : Audio Coding 3
Commercial name                          : Dolby Digital
Codec ID                                 : A_AC3
Duration                                 : 1 h 51 min
Bit rate mode                            : Constant
Bit rate      &

回复

使用道具 举报

您需要登录后才可以回帖 登录 | 立即注册

本版积分规则

5n电影网  

本网站所有资源来自网络,如无意中侵犯了您的权益,请发邮件至 [email protected],立即清除相关链接

GMT+8, 2020-9-29 04:29 , Processed in 0.107140 second(s), 27 queries .

Powered by Discuz! X3.2

© 2001-2013 Comsenz Inc.

快速回复 返回顶部 返回列表