请选择 进入手机版 | 继续访问电脑版

5n电影网

 找回密码
 立即注册

[4K-原盘] 群鸟 The.Birds.1963.2160p.BluRay.REMUX.HEVC.DTS-HD.MA.2.0-FGT 54.71GB

[复制链接]
bt电影 发表于 2020-9-16 10:41:24 | 显示全部楼层 |阅读模式
帖子完整标题:群鸟 The.Birds.1963.2160p.BluRay.REMUX.HEVC.DTS-HD.MA.2.0-FGT 54.71GB




◎译  名 群鸟/Alfred Hitchcock's The Birds/鸟
◎片  名 The Birds
◎年  代 1963
◎产  地 美国
◎类  别 悬疑 / 惊悚 / 灾难
◎语  言 英语
◎上映日期 1963-03-28(美国)
◎片  长 119 分钟
◎导  演 阿尔弗雷德·希区柯克 Alfred Hitchcock
◎编  剧 达芙妮·杜穆里埃 Daphne Du Maurier / 伊万·亨特 Evan Hunter
◎主  演 罗德·泰勒 Rod Taylor
       杰西卡·坦迪 Jessica Tandy
       苏珊娜·普莱舍特 Suzanne Pleshette
       蒂比·海德莉 Tippi Hedren
       维罗尼卡·卡维特 Veronica Cartwright
       艾塞尔·格里菲斯 Ethel Griffies
       查尔斯·麦格劳 Charles McGraw
       鲁斯·麦克德维特 Ruth McDevitt
       朗尼·查普曼 Lonny Chapman
       乔·马特尔 Joe Mantell
       马尔科姆·阿特伯里 Malcolm Atterbury
       约翰·麦戈文 John McGovern
       卡尔·斯温森 Karl Swenson
       理查德·迪肯 Richard Deacon
       伊莉莎白·威尔森 Elizabeth Wilson
       比尔·奎因 Bill Quinn
       多琳郎 Doreen Lang
       摩根·布尼塔尼 Morgan Brittany
       阿尔弗雷德·希区柯克 Alfred Hitchcock
       戴尔·麦肯南 Dal McKennon
       罗珊妮·图尼斯 Roxanne Tunis
       Doodles Weaver
       Darlene Conley
       Renn Reed
       Jeannie Russell

◎标  签 希区柯克 | 惊悚 | 美国 | 悬疑 | AlfredHitchcock | 经典 | 美国电影 | 1963

◎简  介

  米兰妮(蒂比·海德莉 Tippi Hedren 饰)是一个富家女,偶然在宠物店里遇见律师米契(罗德泰勒Rod Taylor 饰),二人萌生爱意。第二天米兰妮带着她的一对宠物鹦鹉到访米契居住的波德加湾小镇,却被一只海鸥袭击,当场受伤。然而谁也没料到,这次鸟袭击人的事件,只是鸟类大规模攻击人类的小序幕。
  
  米兰妮留在镇上疗伤,这里鸟语花香,生活本来平静,她还认识了米契的家人和前女友,于米契的感情也渐渐升温,但是鸟类的出没对他们生活的骚扰程度也渐渐升级。这些鸟聚集的越来越多,黑压压的一大片,被它们攻击至伤甚至至死的居民日渐增多,这个小镇陷入一片疯狂的鸟灾当中。人们恐惧接近崩溃,如何赶快逃脱这个恐怖的地方,成了他们迫在眉梢的问题。

◎获奖情况

  第36届奥斯卡金像奖 ?(1964)
  最佳视觉效果(提名) 乌布·伊沃克斯
  
  第21届金球奖 ?(1964)
  电影类年度女新星 蒂比·海德莉
Video
ID                                       : 1
ID in the original source medium         : 4113 (0x1011)
Format                                   : HEVC
Format/Info                              : High Efficiency Video Coding
HDR format                               : SMPTE ST 2086, HDR10 compatible
Codec ID                                 : V_MPEGH/ISO/HEVC
Duration                                 : 1 h 59 min
Bit rate                                 : 62.4 Mb/s
Width                                    : 3 840 pixels
Height                                   : 2 160 pixels
Display aspect ratio                     : 16:9
Frame rate mode                          : Constant
Frame rate                               : 23.976 (24000/1001/189150) FPS
Color space                              : YUV
Chroma subsampling                       : 4:2:0 (Type 2)
Bit depth                                : 10 bits
Bits/(Pixel*Frame)                       : 0.314
Stream size                              : 52.1 GiB (95%)
Title                                    : The.Birds.1963.2160p.BluRay.REMUX.HEVC.DTS-HD.MA.2.0-FGT
Writing library                          : ATEME Titan File 3.9.6 (4.9.6.2)        
Language                                 : English
Default                                  : No
Forced                                   : No
Color range                              : Limited
Color primaries                          : BT.2020
Transfer characteristics                 : PQ
Matrix coefficients                      : BT.2020 non-constant
Mastering display color primaries        : Display P3
Mastering display luminance              : min: 0.0050 cd/m2, max: 1000 cd/m2
Maximum Content Light Level              : 1000 cd/m2
Maximum Frame-Average Light Level        : 89 cd/m2
Original source medium                   : Blu-ray

Audio #1
ID                                       : 2
ID in the original source medium         : 4352 (0x1100)
Format                                   : DTS XLL
Format/Info                              : Digital Theater Systems
Commercial name                          : DTS-HD Master Audio
Codec ID                                 : A_DTS
Duration                                 : 1 h 59 min
Bit rate mode                            : Variable
Bit rate                                 : 1 785 kb/s
Channel(s)                               : 2 channels
Channel layout                           : L R
Sampling rate                            : 48.0 kHz
Frame rate                               : 93.750 FPS (512 SPF)
Bit depth                                : 24 bits
Compression mode                         : Lossless
Stream size                              : 1.49 GiB (3%)
Title                                    : The.Birds.1963.2160p.BluRay.REMUX.HEVC.DTS-HD.MA.2.0-FGT
Language                                 : English
Default                                  : Yes
Forced                                   : No
Original source medium                   : Blu-ray

Audio #2
ID                                       : 3
ID in the original source medium         : 4353 (0x1101)
Format                                   : DTS
Format/Info                              : Digital Theater Systems
Codec ID                                 : A_DTS
Duration                                 : 1 h 59 min
Bit rate mode                            : Constant
Bit rate                                 : 447 kb/s
Channel(s)                               : 2 channels
Channel layout                           : L R
Sampling rate                            : 48.0 kHz
Frame rate                               : 93.750 FPS (512 SPF)
Bit depth                                : 24 bits
Compression mode                         : Lossy
Stream size                              : 382 MiB (1%)
Title                                    : The.Birds.1963.2160p.BluRay.REMUX.HEVC.DTS-HD.MA.2.0-FGT
Language                                 : German
Default                                  : No
Forced                                   : No
Original source medium                   : Blu-ray

Audio #3
ID                                       : 4
ID in the original source medium         : 4354 (0x1102)
Format                                   : DTS
Format/Info                              : Digital Theater Systems
Codec ID                                 : A_DTS
Duration                                 : 1 h 59 min
Bit rate mode                            : Constant
Bit rate                                 : 447 kb/s
Channel(s)                               : 2 channels
Channel layout                           : L R
Sampling rate                            : 48.0 kHz
Frame rate                               : 93.750 FPS (512 SPF)
Bit depth                                : 24 bits
Compression mode                         : Lossy
Stream size                              : 382 MiB (1%)
Title                                    : The.Birds.1963.2160p.BluRay.REMUX.HEVC.DTS-HD.MA.2.0-FGT
Language                                 : Italian
Default                                  : No
Forced                                   : No
Original source medium                   : Blu-ray

Audio #4
ID                                       : 5
ID in the original source medium         : 4355 (0x1103)
Format                                   : DTS
Format/Info                              : Digital Theater Systems
Codec ID                                 : A_DTS
Duration                                 : 1 h 59 min
Bit rate mode                            : Constant
Bit rate                                 : 447 kb/s
Channel(s)                               : 2 channels
Channel layout                           : L R
Sampling rate                            : 48.0 kHz
Frame rate                               : 93.750 FPS (512 SPF)
Bit depth                                : 24 bits
Compression mode                         : Lossy
Stream size                              : 382 MiB (1%)
Title                                    : The.Birds.1963.2160p.BluRay.REMUX.HEVC.DTS-HD.MA.2.0-FGT
Language                                 : Spanish
Default                                  : No
Forced                                   : No
Original source medium                   : Blu-ray

Text #1
ID                                       : 6
Format                                   : UTF-8
Codec ID                                 : S_TEXT/UTF8
Codec ID/Info                            : UTF-8 Plain Text
Duration                                 : 1 h 56 min
Bit rate                                 : 56 b/s
Count of elements                        : 1428
Stream size                              : 47.8 KiB (0%)
Title                                    : English-SRT
Language                                 : English
Default                                  : Yes
Forced                                   : No

Text #2
ID                                       : 7
ID in the original source medium         : 4768 (0x12A0)
Format                                   : PGS
Muxing mode                              : zlib
Codec ID                                 : S_HDMV/PGS
Codec ID/Info                            : Picture based subtitle format used on BDs/HD-DVDs
Duration                                 : 1 h 58 min
Bit rate                                 : 38.5 kb/s
Count of elements                        : 3156
Stream size                              : 32.7 MiB (0%)
Title                                    : English-PGS
Language                                 : English
Default                                  : No
Forced                                   : No
Original source medium                   : Blu-ray

Text #3
ID                                       : 8
ID in the original source medium         : 4769 (0x12A1)
Format                                   : PGS
Muxing mode                              : zlib
Codec ID                                 : S_HDMV/PGS
Codec ID/Info                            : Picture based subtitle format used on BDs/HD-DVDs
Duration                                 : 1 h 57 min
Bit rate                                 : 33.4 kb/s
Count of elements                        : 2304
Stream size                              : 28.0 MiB (0%)
Title                                    : German-PGS
Language                                 : German
Default                                  : No
Forced                                   : No
Original source medium                   : Blu-ray

Text #4
ID                                       : 9
ID in the original source medium         : 4770 (0x12A2)
Format                                   : PGS
Muxing mode                              : zlib
Codec ID                                 : S_HDMV/PGS
Codec ID/Info                            : Picture based subtitle format used on BDs/HD-DVDs
Duration                                 : 1 h 57 min
Bit rate                                 : 29.5 kb/s
Count of elements                        : 2308
Stream size                              : 24.7 MiB (0%)
Title                                    : Italian-PGS
Language                                 : Italian
Default                                  : No
Forced                                   : No
Original source medium                   : Blu-ray

Text #5
ID                                       : 10
ID in the original source medium         : 4771 (0x12A3)
Format                                   : PGS
Muxing mode                              : zlib
Codec ID                                 : S_HDMV/PGS
Codec ID/Info                            : Picture based subtitle format used on BDs/HD-DVDs
Duration                                 : 1 h 57 min
Bit rate                                 : 30.0 kb/s
Count of elements                        : 2306
Stream size                              : 25.2 MiB (0%)
Title                                    : Spanish-PGS
Language                                 : Spanish
Default                                  : No
Forced                                   : No
Original source medium                   : Blu-ray

Text #6
ID                                       : 11
ID in the original source medium         : 4772 (0x12A4)
Format                                   : PGS
Muxing mode                              : zlib
Codec ID                                 : S_HDMV/PGS
Codec ID/Info                            : Picture based subtitle format used on BDs/HD-DVDs
Duration                                 : 1 h 57 min
Bit rate                                 : 150 b/s
Count of elements                        : 16
Stream size                              : 130 KiB (0%)
Title                                    : German-FORCED-PGS
Language                                 : German
Default                                  : No
Forced                                   : No
Original source medium                   : Blu-ray

Text #7
ID                                       : 12
ID in the original source medium         : 4773 (0x12A5)
Format                                   : PGS
Muxing mode                              : zlib
Codec ID                                 : S_HDMV/PGS
Codec ID/Info                            : Picture based subtitle format used on BDs/HD-DVDs
Duration                                 : 1 h 57 min
Bit rate                                 : 170 b/s
Count of elements                        : 20
Stream size                              : 147 KiB (0%)
Title                                    : Italian-FORCED-PGS
Language                                 : Italian
Default                                  : No
Forced                                   : No
Original source medium                   : Blu-ray

Text #8
ID                                       : 13
ID in the original source medium         : 4774 (0x12A6)
Format                                   : PGS
Muxing mode                              : zlib
Codec ID                                 : S_HDMV/PGS
Codec ID/Info                            : Picture based subtitle format used on BDs/HD-DVDs
Duration                                 : 1 h 57 min
Bit rate                                 : 189 b/s
Count of elements                        : 18
Stream size                              : 163 KiB (0%)
Title                                    : Spanish-FORCED-PGS
Language                                 : Spanish
Default                                  : No
Forced                                   : No
Original source medium                   : Blu-ray

Menu
00:00:00.000                             : en:Chapter 01
00:01:46.564                             : en:Chapter 02
00:09:37.410                             : en:Chapter 03
00:20:07.164                             : en:Chapter 04
00:29:36.733                             : en:Chapter 05
00:32:17.810                             : en:Chapter 06
00:41:01.000                             : en:Chapter 07
00:47:50.826                             : en:Chapter 08
00:54:03.198                             : en:Chapter 09
00:58:54.405                             : en:Chapter 10
01:08:17.718                             : en:Chapter 11
01:15:50.003                             : en:Chapter 12
01:24:27.896                             : en:Chapter 13
01:26:20.967                             : en:Chapter 14
01:28:03.861                             : en:Chapter 15
01:29:44.837                             : en:Chapter 16
01:33:57.256                             : en:Chapter 17
01:45:16.435                             : en:Chapter 18
01:51:18.171                             : en:Chapter 19
01:56:21.140                             : en:Chapter 20




81bd47a0e1d6bea423936c8465890a44.zip (138.28 KB, 下载次数: 0)

回复

使用道具 举报

您需要登录后才可以回帖 登录 | 立即注册

本版积分规则

5n电影网  

本网站所有资源来自网络,如无意中侵犯了您的权益,请发邮件至 [email protected],立即清除相关链接

GMT+8, 2020-9-29 06:59 , Processed in 0.098921 second(s), 30 queries .

Powered by Discuz! X3.2

© 2001-2013 Comsenz Inc.

快速回复 返回顶部 返回列表