请选择 进入手机版 | 继续访问电脑版

5n电影网

 找回密码
 立即注册

[BD-4K] 群尸屠城2 Demons.2.1986.2160p.BluRay.x264.8bit.SDR.DTS-HD.MA.5.1-SWTYBLZ ...

[复制链接]
高清电影 发表于 2021-2-27 10:59:19 | 显示全部楼层 |阅读模式
-->
帖子完整标题:群尸屠城2 Demons.2.1986.2160p.BluRay.x264.8bit.SDR.DTS-HD.MA.5.1-SWTYBLZ 56.41GB


[/url]

◎译  名 群尸屠城2/Demons 2/猛鬼翻生
◎片  名 Dèmoni 2... l'incubo ritorna
◎年  代 1986
◎产  地 意大利
◎类  别 恐怖
◎语  言 英语
◎上映日期 1986-10-09
◎IMDb评分  6/10 from 8989 users
◎  
◎豆瓣评分 6.8/10 from 899 users
◎ 
◎片  长 91 分钟
◎导  演 兰帕德·帕瓦 Lamberto Bava
◎编  剧 达里奥·阿基多 Dario Argento / 兰帕德·帕瓦 Lamberto Bava / 达尔达诺·萨凯蒂 Dardano Sacchetti / 弗兰科·费里尼 Franco Ferrini
◎主  演 艾莎·阿基多 Asia Argento
       Bobby Rhodes
       Coralina Cataldi-Tassoni
       Marco Vivio
       弗吉尼亚·布莱恩特 Virginia Bryant
       卢奇亚诺·帕瓦罗蒂 Luciano Pavarotti
       Pascal Persiano
       兰帕德·帕瓦 Lamberto Bava
       伊丽亚娜·米格里欧 Eliana Miglio
       南茜·布尼里 Nancy Brilli
       Dario Casalini
       Antonio Cantafora
       Lorenzo Flaherty
       Michele Mirabella
       Anita Bartolucci

◎标  签 恐怖 | 意大利 | 丧尸 | 僵尸 | 惊悚 | 意大利电影 | 恐怖电影 | 1986

◎简  介

  一支电视台的摄制组正在调查拍摄一个传说中的恐怖禁地,在那里,他们发现一具恶魔的尸体。无意间,他们将恶魔复活,噩梦降临人间。
  
  该纪录片通过电视播出,当一个女子正在观看时,突然片中的恶魔从电视机里爬出,随后展开血腥杀戮。被它攻击过的人不久也变成恐怖丧尸,四处寻找新的猎物。这个女子所在的大厦被某种怪异的力量封闭,正常的人类不断减少,丧尸数量则持续增加。是生是死?幸存者面临痛苦的抉择。为了活命,他们只有全力拚杀……
Video
ID                                       : 1
Format                                   : AVC
Format/Info                              : Advanced Video Codec
Format profile                           :
Format settings                          : CABAC / 5 Ref Frames
Format settings, CABAC                   : Yes
Format settings, Reference frames        : 5 frames
Codec ID                                 : V_MPEG4/ISO/AVC
Duration                                 : 1 h 31 min
Bit rate                                 : 76.7 Mb/s
Width                                    : 3 600 pixels
Height                                   : 2 160 pixels
Display aspect ratio                     : 5:3
Frame rate mode                          : Constant
Frame rate                               : 24.000 FPS
Color space                              : YUV
Chroma subsampling                       : 4:2:0
Bit depth                                : 8 bits
Scan type                                : Progressive
Bits/(Pixel*Frame)                       : 0.411
Stream size                              : 48.8 GiB (87%)
Writing library                          : x264 core 157 r2935 545de2f
Encoding settings                        : cabac=1 / ref=5 / deblock=1:-1:-1 / analyse=0x3:0x113 / me=umh / subme=10 / psy=1 / psy_rd=1.00:0.15 / mixed_ref=1 / me_range=48 / chroma_me=1 / trellis=2 / 8x8dct=1 / cqm=0 / deadzone=21,11 / fast_pskip=1 / chroma_qp_offset=-3 / threads=48 / lookahead_threads=4 / sliced_threads=0 / nr=0 / decimate=0 / interlaced=0 / bluray_compat=0 / constrained_intra=0 / bframes=3 / b_pyramid=2 / b_adapt=2 / b_bias=0 / direct=3 / weightb=1 / open_gop=0 / weightp=2 / keyint=250 / keyint_min=24 / scenecut=40 / intra_refresh=0 / rc_lookahead=50 / rc=crf / mbtree=1 / crf=20.0 / qcomp=0.60 / qpmin=0 / qpmax=69 / qpstep=4 / ip_ratio=1.40 / aq=1:1.00
Default                                  : Yes
Forced                                   : No

Audio #1
ID                                       : 2
ID in the original source medium         : 4352 (0x1100)
Format                                   : DTS XLL
Format/Info                              : Digital Theater Systems
Commercial name                          : DTS-HD Master Audio
Codec ID                                 : A_DTS
Duration                                 : 1 h 31 min
Bit rate mode                            : Variable
Bit rate                                 : 3 473 kb/s
Channel(s)                               : 6 channels
Channel layout                           : C L R Ls Rs LFE
Sampling rate                            : 48.0 kHz
Frame rate                               : 93.750 FPS (512 SPF)
Bit depth                                : 24 bits
Compression mode                         : Lossless
Stream size                              : 2.21 GiB (4%)
Title                                    : DTS-HD MA 5.1
Language                                 : English
Default                                  : Yes
Forced                                   : No
Original source medium                   : Blu-ray

Audio #2
ID                                       : 3
Format                                   : AC-3
Format/Info                              : Audio Coding 3
Commercial name                          : Dolby Digital
Codec ID                                 : A_AC3
Duration                                 : 1 h 31 min
Bit rate mode                            : Constant
Bit rate                                 : 640 kb/s
Channel(s)                               : 6 channels
Channel layout                           : L R C LFE Ls Rs
Sampling rate                            : 48.0 kHz
Frame rate                               : 31.250 FPS (1536 SPF)
Compression mode                         : Lossy
Stream size                              : 417 MiB (1%)
Title                                    : DD 5.1
Language                                 : English
Service kind                             : Complete Main
Default                                  : No
Forced                                   : No

Audio #3
ID                                       : 4
ID in the original source medium         : 4353 (0x1101)
Format                                   : DTS XLL
Format/Info                              : Digital Theater Systems
Commercial name                          : DTS-HD Master Audio
Codec ID                                 : A_DTS
Duration                                 : 1 h 31 min
Bit rate mode                            : Variable
Bit rate                                 : 1 448 kb/s
Channel(s)                               : 2 channels
Channel layout                           : L R
Sampling rate                            : 48.0 kHz
Frame rate                               : 93.750 FPS (512 SPF)
Bit depth                                : 24 bits
Compression mode                         : Lossless
Stream size                              : 943 MiB (2%)
Title                                    : DTS-HD MA 2.0
Language                                 : English
Default                                  : No
Forced                                   : No
Original source medium                   : Blu-ray

Audio #4
ID                                       : 5
ID in the original source medium         : 4354 (0x1102)
Format                                   : DTS XLL
Format/Info                              : Digital Theater Systems
Commercial name                          : DTS-HD Master Audio
Codec ID                                 : A_DTS
Duration                                 : 1 h 30 min
Bit rate mode                            : Variable
Bit rate                                 : 3 612 kb/s
Channel(s)                               : 6 channels
Channel layout                           : C L R Ls Rs LFE
Sampling rate                            : 48.0 kHz
Frame rate                               : 93.750 FPS (512 SPF)
Bit depth                                : 24 bits
Compression mode                         : Lossless
Stream size                              : 2.30 GiB (4%)
Title                                    : DTS-HD MA 5.1
Language                                 : Italian
Default                                  : No
Forced                                   : No
Original source medium                   : Blu-ray

Audio #5
ID                                       : 6
Format                                   : AC-3
Format/Info                              : Audio Coding 3
Commercial name                          : Dolby Digital
Codec ID                                 : A_AC3
Duration                                 : 1 h 30 min
Bit rate mode                            : Constant
Bit rate                                 : 640 kb/s
Channel(s)                               : 6 channels
Channel layout                           : L R C LFE Ls Rs
Sampling rate                            : 48.0 kHz
Frame rate                               : 31.250 FPS (1536 SPF)
Compression mode                         : Lossy
Stream size                              : 417 MiB (1%)
Title                                    : DD 5.1
Language                                 : Italian
Service kind                             : Complete Main
Default                                  : No
Forced                                   : No

Audio #6
ID                                       : 7
ID in the original source medium         : 4355 (0x1103)
Format                                   : DTS XLL
Format/Info                              : Digital Theater Systems
Commercial name                          : DTS-HD Master Audio
Codec ID                                 : A_DTS
Duration                                 : 1 h 30 min
Bit rate mode                            : Variable
Bit rate                                 : 1 641 kb/s
Channel(s)                               : 2 channels
Channel layout                           : L R
Sampling rate                            : 48.0 kHz
Frame rate                               : 93.750 FPS (512 SPF)
Bit depth                                : 24 bits
Compression mode                         : Lossless
Stream size                              : 1.04 GiB (2%)
Title                                    : DTS-HD MA 2.0
Language                                 : Italian
Default                                  : No
Forced                                   : No
Original source medium                   : Blu-ray

Text #1
ID                                       : 8
Format                                   : UTF-8
Codec ID                                 : S_TEXT/UTF8
Codec ID/Info                            : UTF-8 Plain Text
Duration                                 : 1 h 29 min
Bit rate                                 : 26 b/s
Count of elements                        : 602
Stream size                              : 17.3 KiB (0%)
Title                                    : English-SRT
Language                                 : English
Default                                  : Yes
Forced                                   : No

Text #2
ID                                       : 9
ID in the original source medium         : 4768 (0x12A0)
Format                                   : PGS
Muxing mode                              : zlib
Codec ID                                 : S_HDMV/PGS
Codec ID/Info                            : Picture based subtitle format used on BDs/HD-DVDs
Duration                                 : 1 h 29 min
Bit rate                                 : 22.9 kb/s
Count of elements                        : 1704
Stream size                              : 14.7 MiB (0%)
Title                                    : English-PGS
Language                                 : English
Default                                  : No
Forced                                   : No
Original source medium                   : Blu-ray

Menu
00:00:00.000                             : en:Chapter 01
00:06:05.541                             : en:Chapter 02
00:15:44.916                             : en:Chapter 03
00:22:58.541                             : en:Chapter 04
00:28:07.666                             : en:Chapter 05
00:36:14.916                             : en:Chapter 06
00:45:38.541                             : en:Chapter 07
00:52:26.125                             : en:Chapter 08
00:59:44.041                             : en:Chapter 09
01:06:04.416                             : en:Chapter 10
01:11:39.958                             : en:Chapter 11
01:20:00.333                             : en:Chapter 12
[/url][/url][/url][/url]



                                                                                                                                                                                                        
                                                                                                                                                                                                                                                                                                                                                                                                                                                                                                                                                                                                                                                                                                                                                                                                                                                        
2a4256c2936c3cb19f3517a0fd335a4c.zip (141.77 KB, 下载次数: 0)

回复

使用道具 举报

您需要登录后才可以回帖 登录 | 立即注册

本版积分规则

5n电影网  

本网站所有资源来自网络,如无意中侵犯了您的权益,请发邮件至 [email protected],立即清除相关链接

GMT+8, 2021-4-17 20:37 , Processed in 0.101049 second(s), 29 queries .

Powered by Discuz! X3.2

© 2001-2013 Comsenz Inc.

快速回复 返回顶部 返回列表