请选择 进入手机版 | 继续访问电脑版

5n电影网

 找回密码
 立即注册

起名风波 Whats.in.a.Name.2012.720p.BluRay.x264-USURY 4.09GB

[复制链接]
bt电影 发表于 2021-4-4 21:03:59 | 显示全部楼层 |阅读模式
-->
帖子完整标题:起名风波 Whats.in.a.Name.2012.720p.BluRay.x264-USURY 4.09GB



[/url]

◎译  名 起名风波/What's in a Name/名字
◎片  名 Le prénom
◎年  代 2012
◎产  地 法国
◎类  别 喜剧
◎语  言 法语
◎上映日期 2012-04-25(法国)
◎IMDb评分  7.3/10 from 15312 users
◎  
◎豆瓣评分 7.8/10 from 6111 users
◎ 
◎片  长 109分钟
◎导  演 亚历山大·德·拉·巴特里耶 Alexandre de La Patellière / 马修·德拉波特 Matthieu Delaporte
◎编  剧 亚历山大·德·拉·巴特里耶 Alexandre de La Patellière / 马修·德拉波特 Matthieu Delaporte
◎主  演 帕特里克·布鲁尔 Patrick Bruel
       瓦莱丽·本圭圭 Valérie Benguigui
       夏尔·贝尔林 Charles Berling
       吉约姆·德·东克戴克 Guillaume de Tonquedec
       朱迪斯·厄尔·泽恩 Judith El Zein
       弗兰西丝·法比安 Fran?oise Fabian

◎标  签 法国 | 喜剧 | 家庭 | 2012 | 温情 | 法语 | 搞笑 | 黑色幽默

◎简  介

  四十岁的文森即将首次成为父亲,某次在受邀参加姐姐伊丽莎白和姐夫皮埃尔的家庭晚餐时,他遇到了儿时的朋友克劳德。在等待文森那总是迟到的妻子安娜的过程中,大家兴致勃勃的就他将来的父亲生活提问不断,但是当提到即将出生孩子的取名问题时,文森的回答令全家陷入混乱。
Video
ID                                       : 1
Format                                   : AVC
Format/Info                              : Advanced Video Codec
Format profile                           :
Format settings                          : CABAC / 11 Ref Frames
Format settings, CABAC                   : Yes
Format settings, Reference frames        : 11 frames
Codec ID                                 : V_MPEG4/ISO/AVC
Duration                                 : 1 h 49 min
Bit rate                                 : 4 673 kb/s
Width                                    : 1 280 pixels
Height                                   : 546 pixels
Display aspect ratio                     : 2.35:1
Frame rate mode                          : Constant
Frame rate                               : 24.000 FPS
Color space                              : YUV
Chroma subsampling                       : 4:2:0
Bit depth                                : 8 bits
Scan type                                : Progressive
Bits/(Pixel*Frame)                       : 0.279
Stream size                              : 3.58 GiB (88%)
Writing library                          : x264 core 161 r3048 b86ae3c
Encoding settings                        : cabac=1 / ref=11 / deblock=1:-3:-3 / analyse=0x3:0x133 / me=umh / subme=10 / psy=1 / psy_rd=1.00:0.15 / mixed_ref=1 / me_range=24 / chroma_me=1 / trellis=2 / 8x8dct=1 / cqm=0 / deadzone=21,11 / fast_pskip=1 / chroma_qp_offset=-3 / threads=17 / lookahead_threads=2 / sliced_threads=0 / nr=0 / decimate=1 / interlaced=0 / bluray_compat=0 / constrained_intra=0 / bframes=8 / b_pyramid=2 / b_adapt=2 / b_bias=0 / direct=3 / weightb=1 / open_gop=0 / weightp=2 / keyint=250 / keyint_min=24 / scenecut=40 / intra_refresh=0 / rc_lookahead=60 / rc=crf / mbtree=1 / crf=17.0 / qcomp=0.60 / qpmin=0 / qpmax=69 / qpstep=4 / ip_ratio=1.40 / aq=3:0.60
Language                                 : English
Default                                  : Yes
Forced                                   : No

Audio
ID                                       : 2
Format                                   : AC-3
Format/Info                              : Audio Coding 3
Commercial name                          : Dolby Digital
Codec ID                                 : A_AC3
Duration                                 : 1 h 49 min
Bit rate mode                            : Constant
Bit rate                                 : 640 kb/s
Channel(s)                               : 6 channels
Channel layout                           : L R C LFE Ls Rs
Sampling rate                            : 48.0 kHz
Frame rate                               : 31.250 FPS (1536 SPF)
Compression mode                         : Lossy
Stream size                              : 502 MiB (12%)
Language                                 : French
Service kind                             : Complete Main
Default                                  : Yes
Forced                                   : No

Text #1
ID                                       : 3
Format                                   : UTF-8
Codec ID                                 : S_TEXT/UTF8
Codec ID/Info                            : UTF-8 Plain Text
Duration                                 : 1 h 44 min
Bit rate                                 : 73 b/s
Count of elements                        : 1942
Stream size                              : 55.9 KiB (0%)
Title                                    : English
Language                                 : English
Default                                  : Yes
Forced                                   : Yes

Text #2
ID                                       : 4
Format                                   : UTF-8
Codec ID                                 : S_TEXT/UTF8
Codec ID/Info                            : UTF-8 Plain Text
Duration                                 : 1 h 49 min
Bit rate                                 : 85 b/s
Count of elements                        : 2068
Stream size                              : 68.6 KiB (0%)
Title                                    : French SDH
Language                                 : French
Default                                  : No
Forced                                   : No

Text #3
ID                                       : 5
Format                                   : PGS
Muxing mode                              : zlib
Codec ID                                 : S_HDMV/PGS
Codec ID/Info                            : Picture based subtitle format used on BDs/HD-DVDs
Duration                                 : 1 h 49 min
Bit rate                                 : 14.9 kb/s
Count of elements                        : 4141
Stream size                              : 11.7 MiB (0%)
Title                                    : French SDH
Language                                 : French
Default                                  : No
Forced                                   : No

Menu
00:00:00.000                             : en:00:00:00.000
00:09:53.750                             : en:00:09:53.750
00:20:28.750                             : en:00:20:28.750
00:31:01.625                             : en:00:31:01.625
00:40:19.917                             : en:00:40:19.917
00:47:13.083                             : en:00:47:13.083
00:55:47.292                             : en:00:55:47.292
01:05:42.875                             : en:01:05:42.875
01:14:38.458                             : en:01:14:38.458
01:27:31.875                             : en:01:27:31.875
01:41:33.417                             : en:01:41:33.417
01:45:15.292                             : en:01:45:15.292

[/url]



                                                                                                                                                                                                        
                                                                                                                                                                                                                                                                                                                                                                                                                                                                                                                                                                                                                                                                                                                                                                                                                                                        
7b4a063daac280fd57ebd67b4f2c9322.zip (41.54 KB, 下载次数: 0)

回复

使用道具 举报

您需要登录后才可以回帖 登录 | 立即注册

本版积分规则

5n电影网  

本网站所有资源来自网络,如无意中侵犯了您的权益,请发邮件至 [email protected],立即清除相关链接

GMT+8, 2021-4-17 18:57 , Processed in 0.170165 second(s), 29 queries .

Powered by Discuz! X3.2

© 2001-2013 Comsenz Inc.

快速回复 返回顶部 返回列表