请选择 进入手机版 | 继续访问电脑版

5n电影网

 找回密码
 立即注册

先知游戏 The.Prophets.Game.2000.720p.BluRay.x264-UNVEiL 2.78GB

[复制链接]
电影首发 发表于 2021-4-4 21:03:59 | 显示全部楼层 |阅读模式
-->
帖子完整标题:先知游戏 The.Prophets.Game.2000.720p.BluRay.x264-UNVEiL 2.78GB



[/url]

◎译  名 先知游戏
◎片  名 The Prophet's Game
◎年  代 1999
◎产  地 美国
◎类  别 惊悚
◎语  言 英语
◎上映日期 2000-06-06
◎IMDb评分  5/10 from 924 users
◎  
◎豆瓣评分 /10 from 0 users
◎ 
◎片  长 106 分钟
◎主  演 丹尼斯·霍珀 Dennis Hopper
       斯蒂芬尼·齐姆巴丽斯特 Stephanie Zimbalist
       桑德拉·洛克 Sondra Locke
       香侬·惠利 Shannon Whirry
       唐·斯瓦泽 Don Swayze
       乔·佩尼 Joe Penny
       Dorian Lopinto
       Thorsten Kaye
       Tracey Birdsall-Smith
       Andrew Ducote
       玛格丽特·布赖 Margaret Blye
       杰佛里·刘易斯 Geoffrey Lewis
       罗伯特·金蒂 Robert Ginty
       迈克尔·多恩 Michael Dorn
       丝凯·麦柯·巴楚沙 Skye McCole Bartusiak
       泰勒·摩森 Taylor Momsen
       达林·库珀 Darin Cooper

◎标  签 西片 | 美国电影 | 暴力性粗口 | 惊悚片

◎简  介

  暂无相关剧情介绍
Video
ID                                       : 1
Format                                   : AVC
Format/Info                              : Advanced Video Codec
Format profile                           :
Format settings                          : CABAC / 8 Ref Frames
Format settings, CABAC                   : Yes
Format settings, Reference frames        : 8 frames
Codec ID                                 : V_MPEG4/ISO/AVC
Duration                                 : 1 h 48 min
Bit rate                                 : 2 976 kb/s
Width                                    : 1 280 pixels
Height                                   : 694 pixels
Display aspect ratio                     : 1.85:1
Frame rate mode                          : Constant
Frame rate                               : 23.976 (24000/1001/189150) FPS
Color space                              : YUV
Chroma subsampling                       : 4:2:0
Bit depth                                : 8 bits
Scan type                                : Progressive
Bits/(Pixel*Frame)                       : 0.140
Stream size                              : 2.25 GiB (81%)
Writing library                          : x264 core 161 r3048 b86ae3c
Encoding settings                        : cabac=1 / ref=8 / deblock=1:-3:-3 / analyse=0x3:0x133 / me=umh / subme=9 / psy=1 / psy_rd=1.00:0.00 / mixed_ref=1 / me_range=16 / chroma_me=1 / trellis=2 / 8x8dct=1 / cqm=0 / deadzone=21,11 / fast_pskip=0 / chroma_qp_offset=-2 / threads=22 / lookahead_threads=1 / sliced_threads=0 / nr=0 / decimate=1 / interlaced=0 / bluray_compat=0 / constrained_intra=0 / bframes=3 / b_pyramid=2 / b_adapt=2 / b_bias=0 / direct=3 / weightb=1 / open_gop=0 / weightp=2 / keyint=250 / keyint_min=23 / scenecut=40 / intra_refresh=0 / rc_lookahead=60 / rc=crf / mbtree=1 / crf=17.0 / qcomp=0.60 / qpmin=0 / qpmax=69 / qpstep=4 / ip_ratio=1.40 / aq=1:1.00
Language                                 : English
Default                                  : Yes
Forced                                   : No

Audio
ID                                       : 2
Format                                   : AC-3
Format/Info                              : Audio Coding 3
Commercial name                          : Dolby Digital
Codec ID                                 : A_AC3
Duration                                 : 1 h 48 min
Bit rate mode                            : Constant
Bit rate                                 : 640 kb/s
Channel(s)                               : 6 channels
Channel layout                           : L R C LFE Ls Rs
Sampling rate                            : 48.0 kHz
Frame rate                               : 31.250 FPS (1536 SPF)
Compression mode                         : Lossy
Stream size                              : 495 MiB (17%)
Language                                 : English
Service kind                             : Complete Main
Default                                  : Yes
Forced                                   : No

Text #1
ID                                       : 3
Format                                   : PGS
Muxing mode                              : zlib
Codec ID                                 : S_HDMV/PGS
Codec ID/Info                            : Picture based subtitle format used on BDs/HD-DVDs
Duration                                 : 1 h 43 min
Bit rate                                 : 28.1 kb/s
Count of elements                        : 2352
Stream size                              : 20.9 MiB (1%)
Language                                 : English
Default                                  : No
Forced                                   : No

Text #2
ID                                       : 4
Format                                   : PGS
Muxing mode                              : zlib
Codec ID                                 : S_HDMV/PGS
Codec ID/Info                            : Picture based subtitle format used on BDs/HD-DVDs
Duration                                 : 1 h 45 min
Bit rate                                 : 31.4 kb/s
Count of elements                        : 2662
Stream size                              : 23.6 MiB (1%)
Language                                 : English
Default                                  : No
Forced                                   : No

Text #3
ID                                       : 5
Format                                   : PGS
Muxing mode                              : zlib
Codec ID                                 : S_HDMV/PGS
Codec ID/Info                            : Picture based subtitle format used on BDs/HD-DVDs
Duration                                 : 1 h 43 min
Bit rate                                 : 33.8 kb/s
Count of elements                        : 2305
Stream size                              : 25.0 MiB (1%)
Language                                 : German
Default                                  : No
Forced                                   : No

Text #4
ID                                       : 6
Format                                   : PGS
Muxing mode                              : zlib
Codec ID                                 : S_HDMV/PGS
Codec ID/Info                            : Picture based subtitle format used on BDs/HD-DVDs
Duration                                 : 1 h 45 min
Bit rate                                 : 36.8 kb/s
Count of elements                        : 2613
Stream size                              : 27.7 MiB (1%)
Language                                 : German
Default                                  : No
Forced                                   : No

Menu
00:00:00.000                             : en:Chapter 01
00:09:50.590                             : en:Chapter 02
00:18:44.123                             : en:Chapter 03
00:26:32.591                             : en:Chapter 04
00:36:44.202                             : en:Chapter 05
00:44:11.649                             : en:Chapter 06
00:52:53.170                             : en:Chapter 07
01:02:43.760                             : en:Chapter 08
01:11:58.314                             : en:Chapter 09
01:20:32.828                             : en:Chapter 10
01:30:26.421                             : en:Chapter 11
01:38:50.925                             : en:Chapter 12

[/url]



                                                                                                                                                                                                        
                                                                                                                                                                                                                                                                                                                                                                                                                                                                                                                                                                                                                                                                                                                                                                                                                                                        
c5506b74c71c61583b5e9eb1149cf03e.zip (28.5 KB, 下载次数: 0)

回复

使用道具 举报

您需要登录后才可以回帖 登录 | 立即注册

本版积分规则

5n电影网  

本网站所有资源来自网络,如无意中侵犯了您的权益,请发邮件至 [email protected],立即清除相关链接

GMT+8, 2021-4-17 20:32 , Processed in 0.138103 second(s), 29 queries .

Powered by Discuz! X3.2

© 2001-2013 Comsenz Inc.

快速回复 返回顶部 返回列表