请选择 进入手机版 | 继续访问电脑版

5n电影网

 找回密码
 立即注册

痴凤狂鸾 The.Constant.Husband.1955.720p.BluRay.x264-GAZER 3.30GB

[复制链接]
高清电影 发表于 2021-4-4 21:03:59 | 显示全部楼层 |阅读模式
-->
帖子完整标题:痴凤狂鸾 The.Constant.Husband.1955.720p.BluRay.x264-GAZER 3.30GB



[/url]

◎译  名 痴凤狂鸾
◎片  名 The Constant Husband
◎年  代 1955
◎产  地 英国
◎类  别 喜剧
◎语  言 英语,意大利语,Welsh
◎上映日期 1955
◎IMDb评分  6.4/10 from 341 users
◎  
◎豆瓣评分 /10 from 0 users
◎ 
◎片  长 88 分钟
◎导  演 西德尼·吉里亚特 Sidney Gilliat
◎编  剧 西德尼·吉里亚特 Sidney Gilliat / 瓦尔·瓦伦丁 Val Valentine
◎主  演 雷克斯·哈里森 Rex Harrison
       西塞尔·帕克 Cecil Parker
       凯·肯戴尔 Kay Kendall
       山姆·基德 Sam Kydd
       Olive Kirby
       雷蒙德·亨特利 Raymond Huntley
       吉尔·梅尔福德 Jill Melford
       查尔斯·劳埃德·帕克 Charles Lloyd Pack
       迈克尔·里佩尔 Michael Ripper
       John Robinson
       吉尔·亚当斯 Jill Adams
       Derek Sydney
       乔治·伍德布里奇 George Woodbridge
       Paul Whitsun-Jones
       Muriel Young
       埃里克·普罗曼 Eric Pohlmann
       迈克尔·霍登 Michael Hordern
       厄休拉·豪威尔斯 Ursula Howells
       Arthur Howard
       玛格丽特·莱顿 Margaret Leighton
       妮可·茂瑞 Nicole Maurey
       Graham Stuart
       Eric Berry
       罗伯托·库特 Robert Coote
       阿尔弗雷德·布尔克 Alfred Burke
       Marie Burke
       乔治·科尔 George Cole
       盖伊·迪吉 Guy Deghy
       阿诺德·戴蒙德 Arnold Diamond
       Valerie French
       Noel Hood
       诺拉·戈登 Nora Gordon

◎标  签 英国电影

◎简  介

  暂无相关剧情介绍
Video
ID                                       : 1
Format                                   : AVC
Format/Info                              : Advanced Video Codec
Format profile                           :
Format settings                          : CABAC / 11 Ref Frames
Format settings, CABAC                   : Yes
Format settings, Reference frames        : 11 frames
Codec ID                                 : V_MPEG4/ISO/AVC
Duration                                 : 1 h 28 min
Bit rate                                 : 5 018 kb/s
Width                                    : 986 pixels
Height                                   : 720 pixels
Display aspect ratio                     : 4:3
Frame rate mode                          : Constant
Frame rate                               : 24.000 FPS
Color space                              : YUV
Chroma subsampling                       : 4:2:0
Bit depth                                : 8 bits
Scan type                                : Progressive
Bits/(Pixel*Frame)                       : 0.295
Stream size                              : 3.09 GiB (94%)
Writing library                          : x264 core 161 r3048 b86ae3c
Encoding settings                        : cabac=1 / ref=11 / deblock=1:-3:-3 / analyse=0x3:0x133 / me=umh / subme=10 / psy=1 / psy_rd=1.50:0.15 / mixed_ref=1 / me_range=24 / chroma_me=1 / trellis=2 / 8x8dct=1 / cqm=0 / deadzone=21,11 / fast_pskip=0 / chroma_qp_offset=-3 / threads=22 / lookahead_threads=3 / sliced_threads=0 / nr=0 / decimate=0 / interlaced=0 / bluray_compat=0 / constrained_intra=0 / bframes=8 / b_pyramid=2 / b_adapt=2 / b_bias=0 / direct=3 / weightb=1 / open_gop=0 / weightp=2 / keyint=250 / keyint_min=24 / scenecut=40 / intra_refresh=0 / rc_lookahead=60 / rc=crf / mbtree=1 / crf=17.0 / qcomp=0.60 / qpmin=0 / qpmax=69 / qpstep=4 / ip_ratio=1.40 / aq=3:0.50
Default                                  : Yes
Forced                                   : No
Color range                              : Limited
Matrix coefficients                      : BT.709

Audio
ID                                       : 2
Format                                   : FLAC
Format/Info                              : Free Lossless Audio Codec
Codec ID                                 : A_FLAC
Duration                                 : 1 h 28 min
Bit rate mode                            : Variable
Bit rate                                 : 288 kb/s
Channel(s)                               : 2 channels
Channel layout                           : L R
Sampling rate                            : 48.0 kHz
Frame rate                               : 11.719 FPS (4096 SPF)
Bit depth                                : 16 bits
Compression mode                         : Lossless
Stream size                              : 181 MiB (5%)
Writing library                          : libFLAC 1.3.2 (UTC 2017-01-01)
Language                                 : English
Default                                  : Yes
Forced                                   : No

Text
ID                                       : 3
Format                                   : PGS
Muxing mode                              : zlib
Codec ID                                 : S_HDMV/PGS
Codec ID/Info                            : Picture based subtitle format used on BDs/HD-DVDs
Duration                                 : 1 h 27 min
Bit rate                                 : 132 kb/s
Count of elements                        : 4760
Stream size                              : 82.6 MiB (2%)
Title                                    : SDH
Language                                 : English
Default                                  : No
Forced                                   : No

Menu
00:00:00.000                             : en:Chapter 01
00:06:36.833                             : en:Chapter 02
00:11:45.042                             : en:Chapter 03
00:20:16.500                             : en:Chapter 04
00:30:07.667                             : en:Chapter 05
00:35:08.125                             : en:Chapter 06
00:44:03.792                             : en:Chapter 07
00:52:31.458                             : en:Chapter 08
00:58:33.375                             : en:Chapter 09
01:03:49.708                             : en:Chapter 10
01:10:52.583                             : en:Chapter 11
01:16:57.208                             : en:Chapter 12

[/url]



                                                                                                                                                                                                        
                                                                                                                                                                                                                                                                                                                                                                                                                                                                                                                                                                                                                                                                                                                                                                                                                                                        
0c45f39c32a10458c45aee9073b46855.zip (33.73 KB, 下载次数: 0)

回复

使用道具 举报

您需要登录后才可以回帖 登录 | 立即注册

本版积分规则

5n电影网  

本网站所有资源来自网络,如无意中侵犯了您的权益,请发邮件至 [email protected],立即清除相关链接

GMT+8, 2021-4-17 19:21 , Processed in 0.082353 second(s), 29 queries .

Powered by Discuz! X3.2

© 2001-2013 Comsenz Inc.

快速回复 返回顶部 返回列表