请选择 进入手机版 | 继续访问电脑版

5n电影网

 找回密码
 立即注册

见钱眼开 A.Run.for.Your.Money.1949.720p.BluRay.x264-ORBS 3.78GB

[复制链接]
电影首发 发表于 2021-4-4 21:03:59 | 显示全部楼层 |阅读模式
-->
帖子完整标题:见钱眼开 A.Run.for.Your.Money.1949.720p.BluRay.x264-ORBS 3.78GB



[/url]

◎译  名 见钱眼开
◎片  名 A Run for Your Money
◎年  代 1949
◎产  地 英国
◎类  别 喜剧
◎语  言 英语
◎上映日期 1949
◎IMDb评分  6.6/10 from 515 users
◎  
◎豆瓣评分 /10 from 0 users
◎ 
◎片  长 85 分钟
◎导  演 查尔斯·弗伦德 Charles Frend
◎编  剧 克利福德·埃文斯 Clifford Evans / Richard Hughes / Diana Morgan / 莱斯利·诺曼 Leslie Norman / 查尔斯·弗伦德 Charles Frend
◎主  演 玛丽安·斯通 Marianne Stone
       Henry Webb
       Mackenzie Ward
       Leslie Perrins
       克莱夫·莫顿 Clive Morton
       Desmond Walter-Ellis
       安东尼·奥利弗 Anthony Oliver
       爱德华·瑞格比 Edward Rigby
       莫伊拉·利斯特 Moira Lister
       Andrew Leigh
       乔伊丝·格伦菲尔 Joyce Grenfell
       休·格里夫斯 Hugh Griffith
       唐纳德·休斯敦 Donald Houston
       Gabrielle Brune
       理查德·戴维斯 Richard Davies
       David Davies
       Patric Doonan
       梅雷迪思·爱德华兹 Meredith Edwards
       Dudley Jones
       亚历克·吉尼斯 Alec Guinness

◎标  签 AlecGuinness | UK | Ealing_Studios | Comedy | 1940s | 长片

◎简  介

  暂无相关剧情介绍
Video
ID                                       : 1
Format                                   : AVC
Format/Info                              : Advanced Video Codec
Format profile                           :
Format settings                          : CABAC / 12 Ref Frames
Format settings, CABAC                   : Yes
Format settings, Reference frames        : 12 frames
Codec ID                                 : V_MPEG4/ISO/AVC
Duration                                 : 1 h 23 min
Bit rate                                 : 6 074 kb/s
Width                                    : 958 pixels
Height                                   : 720 pixels
Display aspect ratio                     : 4:3
Frame rate mode                          : Constant
Frame rate                               : 24.000 FPS
Color space                              : YUV
Chroma subsampling                       : 4:2:0
Bit depth                                : 8 bits
Scan type                                : Progressive
Bits/(Pixel*Frame)                       : 0.367
Stream size                              : 3.55 GiB (94%)
Writing library                          : x264 core 161 r3048 b86ae3c
Encoding settings                        : cabac=1 / ref=12 / deblock=1:-3:-3 / analyse=0x3:0x133 / me=umh / subme=10 / psy=1 / psy_rd=1.50:0.15 / mixed_ref=1 / me_range=24 / chroma_me=1 / trellis=2 / 8x8dct=1 / cqm=0 / deadzone=21,11 / fast_pskip=0 / chroma_qp_offset=-3 / threads=22 / lookahead_threads=3 / sliced_threads=0 / nr=0 / decimate=0 / interlaced=0 / bluray_compat=0 / constrained_intra=0 / bframes=8 / b_pyramid=2 / b_adapt=2 / b_bias=0 / direct=3 / weightb=1 / open_gop=0 / weightp=2 / keyint=250 / keyint_min=24 / scenecut=40 / intra_refresh=0 / rc_lookahead=60 / rc=crf / mbtree=1 / crf=18.0 / qcomp=0.60 / qpmin=0 / qpmax=69 / qpstep=4 / ip_ratio=1.40 / aq=3:0.50
Default                                  : Yes
Forced                                   : No
Color range                              : Limited
Matrix coefficients                      : BT.709

Audio
ID                                       : 2
Format                                   : FLAC
Format/Info                              : Free Lossless Audio Codec
Codec ID                                 : A_FLAC
Duration                                 : 1 h 23 min
Bit rate mode                            : Variable
Bit rate                                 : 382 kb/s
Channel(s)                               : 2 channels
Channel layout                           : L R
Sampling rate                            : 48.0 kHz
Frame rate                               : 11.719 FPS (4096 SPF)
Bit depth                                : 16 bits
Compression mode                         : Lossless
Stream size                              : 228 MiB (6%)
Writing library                          : libFLAC 1.3.2 (UTC 2017-01-01)
Language                                 : English
Default                                  : Yes
Forced                                   : No

Text
ID                                       : 3
Format                                   : PGS
Muxing mode                              : zlib
Codec ID                                 : S_HDMV/PGS
Codec ID/Info                            : Picture based subtitle format used on BDs/HD-DVDs
Duration                                 : 1 h 23 min
Bit rate                                 : 44.1 kb/s
Count of elements                        : 2215
Stream size                              : 26.2 MiB (1%)
Title                                    : SDH
Language                                 : English
Default                                  : No
Forced                                   : No

Menu
00:00:00.000                             : en:Chapter 01
00:07:05.625                             : en:Chapter 02
00:13:07.083                             : en:Chapter 03
00:23:14.792                             : en:Chapter 04
00:29:59.125                             : en:Chapter 05
00:38:02.542                             : en:Chapter 06
00:45:26.875                             : en:Chapter 07
00:51:47.625                             : en:Chapter 08
00:57:07.625                             : en:Chapter 09
01:03:02.167                             : en:Chapter 10
01:12:27.208                             : en:Chapter 11
01:17:19.167                             : en:Chapter 12

[/url]



                                                                                                                                                                                                        
                                                                                                                                                                                                                                                                                                                                                                                                                                                                                                                                                                                                                                                                                                                                                                                                                                                        
7f080b1d4c235c808bc93aba90dd53f7.zip (38.53 KB, 下载次数: 0)

回复

使用道具 举报

您需要登录后才可以回帖 登录 | 立即注册

本版积分规则

5n电影网  

本网站所有资源来自网络,如无意中侵犯了您的权益,请发邮件至 [email protected],立即清除相关链接

GMT+8, 2021-4-17 20:30 , Processed in 0.084263 second(s), 29 queries .

Powered by Discuz! X3.2

© 2001-2013 Comsenz Inc.

快速回复 返回顶部 返回列表