请选择 进入手机版 | 继续访问电脑版

5n电影网

 找回密码
 立即注册

前程似锦/直男的恋爱日记 A.Young.Man.with.High.Potential.2018.720p....

[复制链接]
高清bt 发表于 2021-4-4 21:03:59 | 显示全部楼层 |阅读模式
-->
帖子完整标题:前程似锦/直男的恋爱日记 A.Young.Man.with.High.Potential.2018.720p.BluRay.x264-GUACAMOLE 4.52GB



[/url]

◎译  名 前程似锦/直男的恋爱日记
◎片  名 A Young Man with High Potential
◎年  代 2018
◎产  地 德国
◎类  别 剧情 / 惊悚
◎语  言 英语
◎上映日期 2019-03-07(德国)
◎IMDb评分  5.6/10 from 719 users
◎  
◎豆瓣评分 5.6/10 from 161 users
◎ 
◎片  长 85分钟
◎导  演 Linus de Paoli
◎编  剧 Linus de Paoli
◎主  演 保利娜·加拉萨卡 Paulina Galazka
       皮特·布科夫斯基 Pit Bukowski
       亚当·伊尔德·罗威德 Adam Ild Rohweder

◎标  签 惊悚 | 血腥 | 犯罪 | 德国 | 剧情 | 2019 | 恐怖 | 德國

◎简  介

  When the brilliant but sexually inexperienced computer science student PIET is turned down by bright and beautiful KLARA, he is deeply hurt. He takes a dose of a sleep medication, leading to a tumultuous night during which he loses his innocence in more ways than one.
Video
ID                                       : 1
Format                                   : AVC
Format/Info                              : Advanced Video Codec
Format profile                           :
Format settings                          : CABAC / 8 Ref Frames
Format settings, CABAC                   : Yes
Format settings, Reference frames        : 8 frames
Codec ID                                 : V_MPEG4/ISO/AVC
Duration                                 : 1 h 26 min
Bit rate                                 : 6 715 kb/s
Width                                    : 1 280 pixels
Height                                   : 720 pixels
Display aspect ratio                     : 16:9
Frame rate mode                          : Constant
Frame rate                               : 23.976 (24000/1001/189150) FPS
Color space                              : YUV
Chroma subsampling                       : 4:2:0
Bit depth                                : 8 bits
Scan type                                : Progressive
Bits/(Pixel*Frame)                       : 0.304
Stream size                              : 4.04 GiB (89%)
Writing library                          : x264 core 161 r3048 b86ae3c
Encoding settings                        : cabac=1 / ref=8 / deblock=1:-3:-3 / analyse=0x3:0x133 / me=umh / subme=9 / psy=1 / psy_rd=1.00:0.00 / mixed_ref=1 / me_range=16 / chroma_me=1 / trellis=2 / 8x8dct=1 / cqm=0 / deadzone=21,11 / fast_pskip=0 / chroma_qp_offset=-2 / threads=22 / lookahead_threads=1 / sliced_threads=0 / nr=0 / decimate=1 / interlaced=0 / bluray_compat=0 / constrained_intra=0 / bframes=3 / b_pyramid=2 / b_adapt=2 / b_bias=0 / direct=3 / weightb=1 / open_gop=0 / weightp=2 / keyint=250 / keyint_min=23 / scenecut=40 / intra_refresh=0 / rc_lookahead=60 / rc=crf / mbtree=1 / crf=17.0 / qcomp=0.60 / qpmin=0 / qpmax=69 / qpstep=4 / ip_ratio=1.40 / aq=3:1.00
Default                                  : Yes
Forced                                   : No
Color range                              : Limited
Matrix coefficients                      : BT.709

Audio #1
ID                                       : 2
Format                                   : AC-3
Format/Info                              : Audio Coding 3
Commercial name                          : Dolby Digital
Codec ID                                 : A_AC3
Duration                                 : 1 h 26 min
Bit rate mode                            : Constant
Bit rate                                 : 640 kb/s
Channel(s)                               : 6 channels
Channel layout                           : L R C LFE Ls Rs
Sampling rate                            : 48.0 kHz
Frame rate                               : 31.250 FPS (1536 SPF)
Compression mode                         : Lossy
Stream size                              : 395 MiB (9%)
Language                                 : English
Service kind                             : Complete Main
Default                                  : Yes
Forced                                   : No

Audio #2
ID                                       : 3
Format                                   : AAC LC
Format/Info                              : Advanced Audio Codec Low Complexity
Codec ID                                 : A_AAC-2
Duration                                 : 1 h 26 min
Bit rate                                 : 106 kb/s
Channel(s)                               : 2 channels
Channel layout                           : L R
Sampling rate                            : 48.0 kHz
Frame rate                               : 46.875 FPS (1024 SPF)
Compression mode                         : Lossy
Delay relative to video                  : 9 ms
Stream size                              : 65.3 MiB (1%)
Title                                    : Commentary
Language                                 : English
Default                                  : No
Forced                                   : No

Text #1
ID                                       : 4
Format                                   : PGS
Muxing mode                              : zlib
Codec ID                                 : S_HDMV/PGS
Codec ID/Info                            : Picture based subtitle format used on BDs/HD-DVDs
Duration                                 : 1 h 23 min
Bit rate                                 : 18.2 kb/s
Count of elements                        : 1528
Stream size                              : 10.9 MiB (0%)
Title                                    : Vobsubs
Language                                 : English
Default                                  : No
Forced                                   : No

Text #2
ID                                       : 5
Format                                   : PGS
Muxing mode                              : zlib
Codec ID                                 : S_HDMV/PGS
Codec ID/Info                            : Picture based subtitle format used on BDs/HD-DVDs
Duration                                 : 1 h 23 min
Bit rate                                 : 20.2 kb/s
Count of elements                        : 1530
Stream size                              : 12.1 MiB (0%)
Title                                    : Vobsubs
Language                                 : German
Default                                  : No
Forced                                   : No

Text #3
ID                                       : 6
Format                                   : PGS
Muxing mode                              : zlib
Codec ID                                 : S_HDMV/PGS
Codec ID/Info                            : Picture based subtitle format used on BDs/HD-DVDs
Duration                                 : 1 h 25 min
Bit rate                                 : 17.8 kb/s
Count of elements                        : 1455
Stream size                              : 10.9 MiB (0%)
Title                                    : Vobsubs
Language                                 : French
Default                                  : No
Forced                                   : No

Text #4
ID                                       : 7
Format                                   : PGS
Muxing mode                              : zlib
Codec ID                                 : S_HDMV/PGS
Codec ID/Info                            : Picture based subtitle format used on BDs/HD-DVDs
Duration                                 : 1 h 23 min
Bit rate                                 : 18.5 kb/s
Count of elements                        : 1530
Stream size                              : 11.0 MiB (0%)
Title                                    : Vobsubs
Language                                 : Spanish
Default                                  : No
Forced                                   : No

Text #5
ID                                       : 8
Format                                   : PGS
Muxing mode                              : zlib
Codec ID                                 : S_HDMV/PGS
Codec ID/Info                            : Picture based subtitle format used on BDs/HD-DVDs
Duration                                 : 1 h 25 min
Bit rate                                 : 19.0 kb/s
Count of elements                        : 1345
Stream size                              : 11.6 MiB (0%)
Title                                    : Vobsubs
Language                                 : Portuguese
Default                                  : No
Forced                                   : No

Text #6
ID                                       : 9
Format                                   : PGS
Muxing mode                              : zlib
Codec ID                                 : S_HDMV/PGS
Codec ID/Info                            : Picture based subtitle format used on BDs/HD-DVDs
Duration                                 : 1 h 23 min
Bit rate                                 : 15.6 kb/s
Count of elements                        : 1407
Stream size                              : 9.34 MiB (0%)
Title                                    : Vobsubs
Language                                 : Korean
Default                                  : No
Forced                                   : No

Menu
00:00:00.000                             : en:00:00:00.000
00:07:50.261                             : en:00:07:50.261
00:21:55.940                             : en:00:21:55.940
00:31:09.159                             : en:00:31:09.159
00:41:42.458                             : en:00:41:42.458
00:51:14.405                             : en:00:51:14.405
01:05:39.978                             : en:01:05:39.978
01:15:45.458                             : en:01:15:45.458
01:24:09.336                             : en:01:24:09.336

[/url]



                                                                                                                                                                                                        
                                                                                                                                                                                                                                                                                                                                                                                                                                                                                                                                                                                                                                                                                                                                                                                                                                                        
9f4250d02c31ecfc81f082f0cdee33e2.zip (46 KB, 下载次数: 0)

回复

使用道具 举报

您需要登录后才可以回帖 登录 | 立即注册

本版积分规则

5n电影网  

本网站所有资源来自网络,如无意中侵犯了您的权益,请发邮件至 [email protected],立即清除相关链接

GMT+8, 2021-4-17 19:13 , Processed in 0.312919 second(s), 29 queries .

Powered by Discuz! X3.2

© 2001-2013 Comsenz Inc.

快速回复 返回顶部 返回列表