请选择 进入手机版 | 继续访问电脑版

5n电影网

 找回密码
 立即注册

活着(美版)/孤独 Alone.2020.720p.BluRay.x264-GUACAMOLE 2.68GB

[复制链接]
电影天堂 发表于 2021-4-4 21:03:59 | 显示全部楼层 |阅读模式
-->
帖子完整标题:活着(美版)/孤独 Alone.2020.720p.BluRay.x264-GUACAMOLE 2.68GB



[/url]

◎译  名 活着(美版)/孤独/独自一人
◎片  名 Alone
◎年  代 2020
◎产  地 美国
◎类  别 惊悚
◎语  言 英语
◎上映日期 2020-10-16(美国)
◎IMDb评分  4.8/10 from 1714 users
◎  
◎豆瓣评分 4.7/10 from 451 users
◎ 
◎片  长 92分钟
◎导  演 约翰尼·马丁 Johnny Martin
◎编  剧 马特·奈勒 Matt Naylor
◎主  演 泰勒·珀西 Tyler Posey
       唐纳德·萨瑟兰 Donald Sutherland
       罗伯特·理查德 Robert Ri'chard
       约翰·波西 John Posey
       埃里克·艾特巴里 Eric Etebari
       玛格丽塔·雷耶斯 Margarita Reyes
       Greg Fitzpatrick
       玛雅·卡林 Maya Karin
       莎莫·斯皮罗 Summer Spiro

◎标  签 行尸 | 惊悚 | 美国电影 | 美国 | 末世 | T灾难 | 2020 | 唐纳德·萨瑟兰

◎简  介

  唐纳德·萨瑟兰、泰勒·珀西将主演惊悚片[独自一人](Alone,暂译)。本片由约翰尼·马丁执导,Matt Naylor撰写剧本。故事讲述艾丹(珀西饰)把自己关在公寓里以躲避占领楼群的尖叫者。随着世界陷入混乱,艾丹在他的院子里发现一个被困的女孩(Summer Spiro饰)。二人在为求生找出路的过程中,发展出了一段爱情。
Video
ID                                       : 1
Format                                   : AVC
Format/Info                              : Advanced Video Codec
Format profile                           :
Format settings                          : CABAC / 8 Ref Frames
Format settings, CABAC                   : Yes
Format settings, Reference frames        : 8 frames
Codec ID                                 : V_MPEG4/ISO/AVC
Duration                                 : 1 h 32 min
Bit rate                                 : 3 511 kb/s
Width                                    : 1 280 pixels
Height                                   : 534 pixels
Display aspect ratio                     : 2.40:1
Frame rate mode                          : Constant
Frame rate                               : 24.000 FPS
Color space                              : YUV
Chroma subsampling                       : 4:2:0
Bit depth                                : 8 bits
Scan type                                : Progressive
Bits/(Pixel*Frame)                       : 0.214
Stream size                              : 2.26 GiB (84%)
Writing library                          : x264 core 161 r3048 b86ae3c
Encoding settings                        : cabac=1 / ref=8 / deblock=1:-3:-3 / analyse=0x3:0x133 / me=umh / subme=9 / psy=1 / psy_rd=1.00:0.00 / mixed_ref=1 / me_range=16 / chroma_me=1 / trellis=2 / 8x8dct=1 / cqm=0 / deadzone=21,11 / fast_pskip=0 / chroma_qp_offset=-2 / threads=17 / lookahead_threads=1 / sliced_threads=0 / nr=0 / decimate=1 / interlaced=0 / bluray_compat=0 / constrained_intra=0 / bframes=3 / b_pyramid=2 / b_adapt=2 / b_bias=0 / direct=3 / weightb=1 / open_gop=0 / weightp=2 / keyint=250 / keyint_min=24 / scenecut=40 / intra_refresh=0 / rc_lookahead=60 / rc=crf / mbtree=1 / crf=17.0 / qcomp=0.60 / qpmin=0 / qpmax=69 / qpstep=4 / ip_ratio=1.40 / aq=3:1.00
Default                                  : Yes
Forced                                   : No
Color range                              : Limited
Matrix coefficients                      : BT.709

Audio
ID                                       : 2
Format                                   : AC-3
Format/Info                              : Audio Coding 3
Commercial name                          : Dolby Digital
Codec ID                                 : A_AC3
Duration                                 : 1 h 32 min
Bit rate mode                            : Constant
Bit rate                                 : 640 kb/s
Channel(s)                               : 6 channels
Channel layout                           : L R C LFE Ls Rs
Sampling rate                            : 48.0 kHz
Frame rate                               : 31.250 FPS (1536 SPF)
Compression mode                         : Lossy
Stream size                              : 421 MiB (15%)
Language                                 : English
Service kind                             : Complete Main
Default                                  : Yes
Forced                                   : No

Text #1
ID                                       : 3
Format                                   : UTF-8
Codec ID                                 : S_TEXT/UTF8
Codec ID/Info                            : UTF-8 Plain Text
Duration                                 : 1 h 27 min
Bit rate                                 : 0 b/s
Count of elements                        : 12
Stream size                              : 445 Bytes (0%)
Language                                 : English
Default                                  : Yes
Forced                                   : Yes

Text #2
ID                                       : 4
Format                                   : PGS
Muxing mode                              : zlib
Codec ID                                 : S_HDMV/PGS
Codec ID/Info                            : Picture based subtitle format used on BDs/HD-DVDs
Duration                                 : 1 h 27 min
Bit rate                                 : 397 b/s
Count of elements                        : 24
Stream size                              : 255 KiB (0%)
Title                                    : Forced
Language                                 : English
Default                                  : No
Forced                                   : No

Text #3
ID                                       : 5
Format                                   : PGS
Muxing mode                              : zlib
Codec ID                                 : S_HDMV/PGS
Codec ID/Info                            : Picture based subtitle format used on BDs/HD-DVDs
Duration                                 : 1 h 27 min
Bit rate                                 : 24.6 kb/s
Count of elements                        : 1842
Stream size                              : 15.4 MiB (1%)
Title                                    : Vobsubs
Language                                 : German
Default                                  : No
Forced                                   : No

Menu
00:00:00.000                             : en:00:00:00.000
00:02:22.208                             : en:00:02:22.208
00:10:17.583                             : en:00:10:17.583
00:18:31.375                             : en:00:18:31.375
00:26:12.458                             : en:00:26:12.458
00:32:23.292                             : en:00:32:23.292
00:39:04.333                             : en:00:39:04.333
00:44:15.167                             : en:00:44:15.167
00:50:06.875                             : en:00:50:06.875
00:53:50.667                             : en:00:53:50.667
00:57:50.042                             : en:00:57:50.042
01:01:45.125                             : en:01:01:45.125
01:09:09.583                             : en:01:09:09.583
01:16:19.875                             : en:01:16:19.875
01:21:14.833                             : en:01:21:14.833
01:29:03.125                             : en:01:29:03.125

[/url]



                                                                                                                                                                                                        
                                                                                                                                                                                                                                                                                                                                                                                                                                                                                                                                                                                                                                                                                                                                                                                                                                                        
5c5bac9a403a56ead5d2b009a766bf9e.zip (27.44 KB, 下载次数: 0)

回复

使用道具 举报

您需要登录后才可以回帖 登录 | 立即注册

本版积分规则

5n电影网  

本网站所有资源来自网络,如无意中侵犯了您的权益,请发邮件至 [email protected],立即清除相关链接

GMT+8, 2021-4-17 20:20 , Processed in 0.114735 second(s), 29 queries .

Powered by Discuz! X3.2

© 2001-2013 Comsenz Inc.

快速回复 返回顶部 返回列表