请选择 进入手机版 | 继续访问电脑版

5n电影网

 找回密码
 立即注册

树的一生/虫虫教室 树的一生(澳门) The.Life.of.Trees.2012.3D.1080p.BluRay.x264-UNV ...

[复制链接]
高清电影 发表于 2021-4-8 16:20:03 | 显示全部楼层 |阅读模式
-->
帖子完整标题:树的一生/虫虫教室 树的一生(澳门) The.Life.of.Trees.2012.3D.1080p.BluRay.x264-UNVEiL 2.67GB



[/url]

◎译  名 树的一生/虫虫教室 树的一生(澳门)
◎片  名 The Life of Trees
◎年  代 2012
◎产  地 德国
◎类  别 动画 / 纪录片 / 短片 / 儿童
◎语  言 英语,汉语普通话,粤语,法语,西班牙语,德语,日语,韩语
◎上映日期 2012-10-23(德国) / 2015-08-01(中国澳门)
◎IMDb评分  4.3/10 from 7 users
◎  
◎豆瓣评分 /10 from 0 users
◎ 
◎片  长 33分钟(长版)

◎简  介

  这是一部富有教育意义和丰富娱乐性的球幕节目。两位有趣的小主角:瓢虫“多多”及萤火虫“小米”充当老师,将他们在学校里所学的知识与大家分享。它们除了会讲解树木怎样抵抗地心引力将水从地下输送到树冠、光合作用的过程等知识之外,还会介绍树木怎样透过产生氧气,来确保地球的生物多样性。多多和小米会与其他昆虫小朋友一起,带领观众开启一次冒险之旅,尝试从昆虫的角度探索世界。
Video
ID                                       : 1
Format                                   : AVC
Format/Info                              : Advanced Video Codec
Format profile                           :
Format settings                          : CABAC / 4 Ref Frames
Format settings, CABAC                   : Yes
Format settings, Reference frames        : 4 frames
Codec ID                                 : V_MPEG4/ISO/AVC
Duration                                 : 32 min 27 s
Bit rate                                 : 9 359 kb/s
Width                                    : 1 920 pixels
Height                                   : 1 080 pixels
Display aspect ratio                     : 16:9
Frame rate mode                          : Constant
Frame rate                               : 23.976 FPS
Color space                              : YUV
Chroma subsampling                       : 4:2:0
Bit depth                                : 8 bits
Scan type                                : Progressive
Bits/(Pixel*Frame)                       : 0.188
Stream size                              : 2.12 GiB (79%)
Writing library                          : x264 core 161 r3048 b86ae3c
Encoding settings                        : cabac=1 / ref=4 / deblock=1:-3:-3 / analyse=0x3:0x133 / me=umh / subme=8 / psy=1 / psy_rd=1.00:0.00 / mixed_ref=1 / me_range=16 / chroma_me=1 / trellis=2 / 8x8dct=1 / cqm=0 / deadzone=21,11 / fast_pskip=0 / chroma_qp_offset=-2 / threads=12 / lookahead_threads=2 / sliced_threads=0 / nr=0 / decimate=1 / interlaced=0 / bluray_compat=0 / constrained_intra=0 / bframes=3 / b_pyramid=2 / b_adapt=1 / b_bias=0 / direct=3 / weightb=1 / open_gop=0 / weightp=2 / keyint=250 / keyint_min=23 / scenecut=40 / intra_refresh=0 / rc_lookahead=50 / rc=crf / mbtree=1 / crf=17.0 / qcomp=0.60 / qpmin=0 / qpmax=69 / qpstep=4 / ip_ratio=1.40 / aq=1:1.00
Language                                 : English
Default                                  : Yes
Forced                                   : No

Audio
ID                                       : 2
Format                                   : DTS XLL
Format/Info                              : Digital Theater Systems
Commercial name                          : DTS-HD Master Audio
Codec ID                                 : A_DTS
Duration                                 : 32 min 27 s
Bit rate mode                            : Variable
Bit rate                                 : 2 429 kb/s
Channel(s)                               : 6 channels
Channel layout                           : C L R Ls Rs LFE
Sampling rate                            : 48.0 kHz
Frame rate                               : 93.750 FPS (512 SPF)
Bit depth                                : 16 bits
Compression mode                         : Lossless
Stream size                              : 564 MiB (21%)
Language                                 : English
Default                                  : Yes
Forced                                   : No

Menu
00:00:00.000                             : en:Chapter 01
00:00:38.747                             : en:Chapter 02
00:06:12.539                             : en:Chapter 03
00:12:12.732                             : en:Chapter 04
00:15:32.056                             : en:Chapter 05
00:22:26.679                             : en:Chapter 06
00:25:39.955                             : en:Chapter 07
00:28:46.058                             : en:Chapter 08




                                                                                                                                                                                                        
                                                                                                                                                                                                                                                                                                                                                                                                                                                                                                                                                                                                                                                                                                                                                                                                                                                        
c688760f3384643f5f2c0efa15f86e88.zip (27.45 KB, 下载次数: 0)

回复

使用道具 举报

您需要登录后才可以回帖 登录 | 立即注册

本版积分规则

5n电影网  

本网站所有资源来自网络,如无意中侵犯了您的权益,请发邮件至 [email protected],立即清除相关链接

GMT+8, 2021-4-17 20:00 , Processed in 0.131913 second(s), 29 queries .

Powered by Discuz! X3.2

© 2001-2013 Comsenz Inc.

快速回复 返回顶部 返回列表