请选择 进入手机版 | 继续访问电脑版

5n电影网

 找回密码
 立即注册

[BT下载]摇滚救妻/咸味 Gun.Shy.2017.1080p.BluRay.x264.DTS-HD.MA.5.1-MT 8.9GB ... ...

[复制链接]
高清bt 发表于 2017-11-4 12:06:44 | 显示全部楼层 |阅读模式

译  名 摇滚救妻/咸味
片  名 Salty
年  代 2017
产  地 英国
类  别 动作
上映日期 2017-09-08(美国)
片  长 86分钟
导  演 西蒙·韦斯特 Simon West
主  演 欧嘉·柯瑞兰寇 Olga Kurylenko
      安东尼奥·班德拉斯 Antonio Banderas
      杰里米·斯威夫特 Jeremy Swift


简  介


  图尔克(安东尼奥·班德拉斯 饰)是位人气爆棚的摇滚乐手。已经上了年纪的他此番来到泰国和妻子度假,可盘踞于此的恐怖分子却盯上了他的老婆。万般无奈之下图尔克只好放下吉他,拿起枪杆子和恐怖分子对抗拯救爱妻。



Video
ID                                       : 1
Format                                   : AVC
Format/Info                              : Advanced Video Codec
Format profile                           : HighL4.1
Format settings, CABAC                   : Yes
Format settings, ReFrames                : 5 frames
Codec ID                                 : V_MPEG4/ISO/AVC
Duration                                 : 1 h 31 min
Bit rate                                 : 10.2 Mb/s
Width                                    : 1 920 pixels
Height                                   : 804 pixels
Display aspect ratio                     : 2.40:1
Frame rate mode                          : Constant
Frame rate                               : 23.976 (24000/1001) FPS
Color space                              : YUV
Chroma subsampling                       : 4:2:0
Bit depth                                : 8 bits
Scan type                                : Progressive
Bits/(Pixel*Frame)                       : 0.276
Stream size                              : 6.54 GiB (74%)
Default                                  : Yes
Forced                                   : No

Audio
ID                                       : 2
Format                                   : DTS
Format/Info                              : Digital Theater Systems
Format profile                           : MA / Core
Mode                                     : 16
Format settings, Endianness              : Big
Codec ID                                 : A_DTS
Duration                                 : 1 h 31 min
Bit rate mode                            : Variable / Constant
Bit rate                                 : 3 671 kb/s / 1 509 kb/s
Channel(s)                               : 6 channels
Channel positions                        : Front: L C R, Side: L R, LFE
Sampling rate                            : 48.0 kHz
Frame rate                               : 93.750 FPS (512 spf)
Bit depth                                : 24 bits
Compression mode                         : Lossless / Lossy
Stream size                              : 2.35 GiB (26%)
Title                                    : English
Language                                 : English
Default                                  : Yes
Forced                                   : No









                 
Gun.Shy.2017.1080p.BluRay.x264.DTS-HD.MA.5.1-MT[bt天堂 www.btbt4.com].torrent (89.48 KB)

回复

使用道具 举报

您需要登录后才可以回帖 登录 | 立即注册

本版积分规则

5n电影网  |网站地图

本网站所有资源来自网络,如无意中侵犯了您的权益,请发邮件至 [email protected],立即清除相关链接

GMT+8, 2019-5-25 22:58 , Processed in 0.069196 second(s), 31 queries .

Powered by Discuz! X3.2

© 2001-2013 Comsenz Inc.

快速回复 返回顶部 返回列表