请选择 进入手机版 | 继续访问电脑版

5n电影网

 找回密码
 立即注册

[BT下载]好时光 Good.Time.2017.1080p.BluRay.x264.DTS-FGT 13.7GB

[复制链接]
高清bt 发表于 2017-11-4 12:06:44 | 显示全部楼层 |阅读模式

译  名 好时光/命中有罪(港)/失速夜狂奔(台)
片  名 Good Time
年  代 2017
产  地 美国
类  别 剧情/犯罪
语  言 英语
上映日期 2017-05-25(戛纳电影节)/2017-08-11(美国)
西西电影 http://www.xixizhan.com/
片  长 102分钟
导  演 本·萨弗迪 Ben Safdie / 约书亚·萨弗迪 Joshua Safdie
主  演 罗伯特·帕丁森 Robert Pattinson
      本·萨弗迪 Ben Safdie
      泰丽尔·韦伯斯特 Taliah Webster
      詹妮弗·杰森·李 Jennifer Jason Leigh
      巴克德·阿巴蒂 Barkhad Abdi
      内可罗 Necro
      苏利芒·西尔·萨瓦内 Souleymane Sy Savane
      菲尔·卡帕多拉 Phil Cappadora
      肖恩·雷伊 Shaun Rey
      巴迪·杜瑞斯 Buddy Duress
      马科斯·A·冈萨雷斯 Marcos A. Gonzalez
      克利夫·莫伊伦 Cliff Moylan
      埃德加·莫雷斯 Edgar Morais
      卢卡斯·艾略特·艾博尔 Lucas Elliot Eberl


简  介


  一起以灾难收场的抢劫案后,劫犯康斯坦丁成功逃走,但他的弟弟尼克却被捕。为了能让自己的弟弟离开监狱,康斯坦丁尝试了去筹集足够的保释金,但他还有另外一个选择,那就是帮助尼克越狱。穷途末路的康斯坦丁别无他法,在纽约的地下世界中,等待着他的只有危机四伏的挑战。一个惊心动魄的漫漫长夜就此拉开序幕,为了拯救自己与尼克,康斯坦丁唯有与时间赛跑,而他也意识到,他和尼克的生命就像是处于平衡木的两端,无法一起全身而退。


获奖情况


  第70届戛纳电影节  (2017)
  主竞赛单元 金棕榈奖(提名) 本·萨弗迪 / 约书亚·萨弗迪


  第27届哥谭独立电影奖  (2017)
  最佳影片(提名)
  最佳男演员(提名) 罗伯特·帕丁森


Video
ID                                       : 1
Format                                   : AVC
Format/Info                              : Advanced Video Codec
Format profile                           : HighL4.1
Format settings, CABAC                   : Yes
Format settings, ReFrames                : 4 frames
Codec ID                                 : V_MPEG4/ISO/AVC
Duration                                 : 1 h 41 min
Bit rate                                 : 17.5 Mb/s
Width                                    : 1 920 pixels
Height                                   : 800 pixels
Display aspect ratio                     : 2.40:1
Frame rate mode                          : Constant
Frame rate                               : 24.000 FPS
Color space                              : YUV
Chroma subsampling                       : 4:2:0
Bit depth                                : 8 bits
Scan type                                : Progressive
Bits/(Pixel*Frame)                       : 0.475
Stream size                              : 12.4 GiB (90%)
Title                                    : Good.Time.2017.1080p.BluRay.x264.DTS-FGT
Writing library                          : x264 core 148 r2795M aaa9aa8
Encoding settings                        : cabac=1 / ref=4 / deblock=1:-2:-2 / analyse=0x3:0x113 / me=umh / subme=9 / psy=1 / psy_rd=1.00:0.15 / mixed_ref=1 / me_range=16 / chroma_me=1 / trellis=2 / 8x8dct=1 / cqm=0 / deadzone=21,11 / fast_pskip=1 / chroma_qp_offset=-3 / threads=24 / lookahead_threads=3 / sliced_threads=0 / nr=0 / decimate=1 / interlaced=0 / bluray_compat=0 / constrained_intra=0 / bframes=3 / b_pyramid=2 / b_adapt=2 / b_bias=0 / direct=3 / weightb=1 / open_gop=0 / weightp=2 / keyint=250 / keyint_min=24 / scenecut=40 / intra_refresh=0 / rc_lookahead=50 / rc=crf / mbtree=1 / crf=21.0 / qcomp=0.60 / qpmin=0 / qpmax=69 / qpstep=4 / ip_ratio=1.40 / aq=1:1.00
Language                                 : English
Default                                  : Yes
Forced                                   : No

Audio
ID                                       : 2
Format                                   : DTS
Format/Info                              : Digital Theater Systems
Mode                                     : 16
Format settings, Endianness              : Big
Codec ID                                 : A_DTS
Duration                                 : 1 h 41 min
Bit rate mode                            : Constant
Bit rate                                 : 1 509 kb/s
Channel(s)                               : 6 channels
Channel positions                        : Front: L C R, Side: L R, LFE
Sampling rate                            : 48.0 kHz
Frame rate                               : 93.750 FPS (512 spf)
Bit depth                                : 24 bits
Compression mode                         : Lossy
Stream size                              : 1.07 GiB (8%)
Title                                    : Good.Time.2017.1080p.BluRay.x264.DTS-FGT
Language                                 : English
Default                                  : Yes
Forced                                   : No

Menu
00:00:00.000                             : en:Chapter 01
00:12:33.458                             : en:Chapter 02
00:25:52.416                             : en:Chapter 03
00:36:43.958                             : en:Chapter 04
00:49:37.750                             : en:Chapter 05
01:03:01.833                             : en:Chapter 06
01:15:24.541                             : en:Chapter 07
01:27:26.833                             : en:Chapter 08
01:41:00.958                             : en:Chapter 09







                                                                                                                                                                                                        



Good.Time.2017.1080p.BluRay.x264.DTS-FGT[bt天堂 www.btbt4.com].torrent (69 KB)

回复

使用道具 举报

您需要登录后才可以回帖 登录 | 立即注册

本版积分规则

5n电影网  |网站地图

本网站所有资源来自网络,如无意中侵犯了您的权益,请发邮件至 [email protected],立即清除相关链接

GMT+8, 2019-5-25 01:44 , Processed in 0.074741 second(s), 31 queries .

Powered by Discuz! X3.2

© 2001-2013 Comsenz Inc.

快速回复 返回顶部 返回列表