请选择 进入手机版 | 继续访问电脑版

5n电影网

 找回密码
 立即注册

[BT下载]布里斯比熊 Brigsby.Bear.2017.1080p.BluRay.x264.DTS-CHD 7.78GB

[复制链接]
bt下载 发表于 2017-11-4 12:06:44 | 显示全部楼层 |阅读模式

译  名 布里斯比熊
片  名 Brigsby Bear
年  代 2017
产  地 美国
类  别 喜剧
语  言 英语
上映日期 2017-01-23(圣丹斯电影节)/2017-07-28(美国)
片  长 100分钟
导  演 戴夫·麦卡里 Dave McCary
主  演 凯尔·穆尼 Kyle Mooney
      马克·哈米尔 Mark Hamill
      小豪尔赫·兰登伯格 Jorge Lendeborg Jr.
      克莱尔·丹妮丝 Claire Danes
      安迪·萨姆伯格 Andy Samberg
      格雷戈·金尼尔 Greg Kinnear
      麦可拉·沃金丝 Michaela Watkins
      芮安·辛普金斯 Ryan Simpkins
      简·亚当斯 Jane Adams
      贝克·班尼特 Beck Bennett
      马特·沃尔什 Matt Walsh


简  介


  James 长大后发现,自己是唯一看过〈Brigsby Bear Adventures〉儿童电视节目的人,而在节目突然停播后,他的生活也成了一团乱,因此他用自己的方式来继续未完的故事。


获奖情况


  第20届上海国际电影节  (2017)
  金爵奖(提名) 戴夫·麦卡里 / 劳拉·佩里尼 / 玛利亚·格拉齐亚·佩里亚


Video
ID                                       : 1
Format                                   : AVC
Format/Info                              : Advanced Video Codec
Format profile                           : HighL4.1
Format settings, CABAC                   : Yes
Format settings, ReFrames                : 4 frames
Codec ID                                 : V_MPEG4/ISO/AVC
Duration                                 : 1 h 37 min
Bit rate                                 : 9 723 kb/s
Width                                    : 1 920 pixels
Height                                   : 800 pixels
Display aspect ratio                     : 2.40:1
Frame rate mode                          : Constant
Frame rate                               : 23.976 (24000/1001) FPS
Color space                              : YUV
Chroma subsampling                       : 4:2:0
Bit depth                                : 8 bits
Scan type                                : Progressive
Bits/(Pixel*Frame)                       : 0.264
Stream size                              : 6.60 GiB (85%)
Title                                    : Brigsby.Bear.2017.1080p.BluRay.x264.DTS-CHD
Writing library                          : x264 core 149 r2771+45 509cceb 7mod [[email protected] X86_64]
Encoding settings                        : cabac=1 / ref=4 / deblock=1:-3:-3 / analyse=0x3:0x113 / me=umh / subme=10 / psy=1 / fade_compensate=0.00 / psy_rd=0.90:0.10 / mixed_ref=1 / me_range=48 / chroma_me=1 / trellis=2 / 8x8dct=1 / cqm=0 / deadzone=21,11 / fast_pskip=0 / chroma_qp_offset=-2 / threads=12 / lookahead_threads=2 / sliced_threads=0 / nr=0 / decimate=1 / interlaced=0 / bluray_compat=0 / constrained_intra=0 / fgo=0 / bframes=8 / b_pyramid=2 / b_adapt=2 / b_bias=0 / direct=3 / weightb=1 / open_gop=0 / weightp=2 / keyint=250 / keyint_min=23 / scenecut=40 / intra_refresh=0 / rc_lookahead=40 / rc=crf / mbtree=0 / crf=20.0000 / qcomp=0.70 / qpmin=0:0:0 / qpmax=69:69:69 / qpstep=4 / vbv_maxrate=35000 / vbv_bufsize=35000 / crf_max=0.0 / nal_hrd=none / filler=0 / ip_ratio=1.40 / pb_ratio=1.30 / aq=3:1.00 / aq-sensitivity=10.00 / aq-factor=1.00:1.00:1.00 / aq2=0 / aq3=2:[0.50:0.50]:[0.50:0.50]:[0.50:0.50]:[0.50:0.50] / aq3-sensitivity=10.00 / aq3-factor=[1.00:1.00]:[1.00:1.00]:[1.00:1.00] / aq3-boundary=192:64:24
Language                                 : English
Default                                  : Yes
Forced                                   : No
Color range                              : Limited
Matrix coefficients                      : BT.709

Audio
ID                                       : 2
Format                                   : DTS
Format/Info                              : Digital Theater Systems
Mode                                     : 16
Format settings, Endianness              : Big
Codec ID                                 : A_DTS
Duration                                 : 1 h 37 min
Bit rate mode                            : Constant
Bit rate                                 : 1 509 kb/s
Channel(s)                               : 6 channels
Channel positions                        : Front: L C R, Side: L R, LFE
Sampling rate                            : 48.0 kHz
Frame rate                               : 93.750 FPS (512 spf)
Bit depth                                : 24 bits
Compression mode                         : Lossy
Stream size                              : 1.02 GiB (13%)
Title                                    : Brigsby.Bear.2017.1080p.BluRay.x264.DTS-CHD
Language                                 : English
Default                                  : Yes
Forced                                   : No

Text
ID                                       : 3
Format                                   : UTF-8
Codec ID                                 : S_TEXT/UTF8
Codec ID/Info                            : UTF-8 Plain Text
Language                                 : English
Default                                  : Yes
Forced                                   : No





                                                                                                                                                                                                        

         

Brigsby.Bear.2017.1080p.BluRay.x264.DTS-CHD[bt天堂 www.btbt4.com].torrent (78.36 KB)

回复

使用道具 举报

您需要登录后才可以回帖 登录 | 立即注册

本版积分规则

5n电影网  |网站地图

本网站所有资源来自网络,如无意中侵犯了您的权益,请发邮件至 [email protected],立即清除相关链接

GMT+8, 2019-7-24 02:03 , Processed in 0.099175 second(s), 31 queries .

Powered by Discuz! X3.2

© 2001-2013 Comsenz Inc.

快速回复 返回顶部 返回列表