请选择 进入手机版 | 继续访问电脑版

5n电影网

 找回密码
 立即注册

[BT下载]梦中人/祝你有个甜美的梦[内封中字]Sweet.Dreams.2016.1080p.BluRay.x264.DTS ...

[复制链接]
bt下载 发表于 2017-11-4 12:06:44 | 显示全部楼层 |阅读模式

译  名 梦中人/祝你有个甜美的梦(台)/甜蜜假象(港)/孤独梦里人/甜美的梦/美梦无言
片  名 Fai bei sogni
年  代 2016
产  地 意大利/法国
类  别 剧情
语  言 意大利语
上映日期 2016-05-12(戛纳电影节)
西西电影 http://www.xixizhan.com/
片  长 131分钟
导  演 马可·贝罗奇奥 Marco Bellocchio
主  演 瓦里诺·马斯坦德雷阿 Valerio Mastandrea
      贝热尼丝·贝乔 Bérénice Bejo
      法布里西奥·纪福尼 Fabrizio Gifuni
      圭多·卡普里诺 Guido Caprino
      Barbara Ronchi


简  介


  贝罗奇奥是意大利国宝级导演之一,他不但深受威尼斯的追捧,同时也受到戛纳的厚爱。他曾五次入围威尼斯电影节主竞赛,并获得终身成就奖;同时,他又曾入围过六次戛纳主竞赛单元。去年,导演极其私人化的影片《吾血之血》在威尼斯收获无数好评。今年这部片,将围绕一个隐藏在信封内长达四十年的秘密所展开。本片为今年导演双周开幕片。


Video
ID                                       : 1
Format                                   : AVC
Format/Info                              : Advanced Video Codec
Format profile                           : mailto:[email protected]
Format settings, CABAC                   : Yes
Format settings, ReFrames                : 5 frames
Codec ID                                 : V_MPEG4/ISO/AVC
Duration                                 : 2 h 11 min
Bit rate                                 : 14.0 Mb/s
Width                                    : 1 920 pixels
Height                                   : 804 pixels
Display aspect ratio                     : 2.40:1
Frame rate mode                          : Constant
Frame rate                               : 23.976 (24000/1001) FPS
Color space                              : YUV
Chroma subsampling                       : 4:2:0
Bit depth                                : 8 bits
Scan type                                : Progressive
Bits/(Pixel*Frame)                       : 0.378
Stream size                              : 12.8 GiB (90%)
Writing library                          : x264 core 152 r2851+58 429492e t_mod_Custom [[email protected] X86_64]
Encoding settings                        : cabac=1 / ref=5 / deblock=1:-3:-3 / analyse=0x3:0x133 / me=umh / subme=10 / psy=1 / fade_compensate=0.00 / psy_rd=1.00:0.05 / mixed_ref=1 / me_range=32 / chroma_me=1 / trellis=2 / 8x8dct=1 / cqm=0 / deadzone=21,11 / fast_pskip=0 / chroma_qp_offset=-3 / threads=24 / lookahead_threads=4 / sliced_threads=0 / nr=0 / decimate=0 / interlaced=0 / bluray_compat=0 / constrained_intra=0 / fgo=0 / bframes=9 / b_pyramid=2 / b_adapt=1 / b_bias=0 / direct=3 / weightb=1 / open_gop=0 / weightp=2 / keyint=250 / keyint_min=23 / scenecut=40 / intra_refresh=0 / rc=2pass / mbtree=0 / bitrate=14000 / ratetol=1.0 / qcomp=0.75 / qpmin=0:0:0 / qpmax=69:69:69 / qpstep=4 / cplxblur=20.0 / qblur=0.5 / ip_ratio=1.30 / pb_ratio=1.20 / aq=3:0.88 / aq-sensitivity=10.00 / aq-factor=1.00:1.00:1.00 / aq2=0 / aq3=0
Default                                  : Yes
Forced                                   : No

Audio
ID                                       : 4
Format                                   : DTS
Format/Info                              : Digital Theater Systems
Mode                                     : 16
Format settings, Endianness              : Big
Codec ID                                 : A_DTS
Duration                                 : 2 h 11 min
Bit rate mode                            : Constant
Bit rate                                 : 1 509 kb/s
Channel(s)                               : 6 channels
Channel positions                        : Front: L C R, Side: L R, LFE
Sampling rate                            : 48.0 kHz
Frame rate                               : 93.750 FPS (512 spf)
Bit depth                                : 24 bits
Compression mode                         : Lossy
Stream size                              : 1.38 GiB (10%)
Language                                 : Italian
Default                                  : Yes
Forced                                   : No

Text #1
ID                                       : 2
Format                                   : ASS
Codec ID                                 : S_TEXT/ASS
Codec ID/Info                            : Advanced Sub Station Alpha
Duration                                 : 2 h 4 min
Bit rate                                 : 88 b/s
Count of elements                        : 1362
Compression mode                         : Lossless
Stream size                              : 81.0 KiB (0%)
Title                                    : chs
Language                                 : Chinese
Default                                  : No
Forced                                   : No

Text #2
ID                                       : 3
Format                                   : ASS
Codec ID                                 : S_TEXT/ASS
Codec ID/Info                            : Advanced Sub Station Alpha
Duration                                 : 2 h 4 min
Bit rate                                 : 88 b/s
Count of elements                        : 1362
Compression mode                         : Lossless
Stream size                              : 81.0 KiB (0%)
Title                                    : cht
Language                                 : Chinese
Default                                  : No
Forced                                   : No

Menu
00:00:00.000                             : en:00:00:00.000
00:05:32.999                             : en:00:05:32.999
00:10:31.464                             : en:00:10:31.464
00:20:48.038                             : en:00:20:48.038
00:36:06.623                             : en:00:36:06.623
00:43:06.459                             : en:00:43:06.459
00:55:59.606                             : en:00:55:59.606
01:03:24.801                             : en:01:03:24.801
01:22:02.543                             : en:01:22:02.543
01:30:42.312                             : en:01:30:42.312
01:40:29.982                             : en:01:40:29.982
01:49:47.831                             : en:01:49:47.831







                                                                                                                                                                     
Sweet.Dreams.2016.1080p.BluRay.x264.DTS-WiKi[bt天堂 www.btbt4.com].torrent (71.64 KB)

回复

使用道具 举报

您需要登录后才可以回帖 登录 | 立即注册

本版积分规则

5n电影网  |网站地图

本网站所有资源来自网络,如无意中侵犯了您的权益,请发邮件至 [email protected],立即清除相关链接

GMT+8, 2019-11-13 15:08 , Processed in 0.081379 second(s), 31 queries .

Powered by Discuz! X3.2

© 2001-2013 Comsenz Inc.

快速回复 返回顶部 返回列表