请选择 进入手机版 | 继续访问电脑版

5n电影网

 找回密码
 立即注册

[BT下载]白百合/禁断之百合[内封中字]White.Lily.2016.1080p.BluRay.x264-WiKi 6GB .. ...

[复制链接]
bt下载 发表于 2017-11-4 12:06:44 | 显示全部楼层 |阅读模式

译  名 白百合/禁断之百合(港)/白百合之恋(台)
片  名 ホワイトリリー
年  代 2016
产  地 日本
类  别 同性
语  言 日语
上映日期 2016-11-26(日本)
西西电影 http://www.xixizhan.com/
片  长 80分钟
导  演 中田秀夫 Hideo Nakata
主  演 飞鸟凛 Rin Asuka
      山口香绪里 Kaori Yamaguti
      町井祥真 Shôma Machii
      西川可奈子 Kanako Nishikawa
      三上市朗 Ichirô Mikami
      镰仓太郎 Tarô Kamakura
      伊藤可可 Kôko Itô
      榎本由希 Yuki Enomoto
      松山尚子 Hisako Matsuyama
      林田麻里 Miki Hayashida


简  介


  电影公司「日活」创业百年,最具代表性的一个品牌,是在七、 八十年代风靡一时的「粉红映画」(日文叫Roman Porno,海外称之为Pink Movie),亦即是浪漫化的成人电影。今年适逢「粉红映画」诞生四十五周年,「日活」特别筹划了「Roman Porno Reboot」计划,找来园子温、行定勳、中田秀夫、盐田明彦、白石和弥五位名导操刀,各拍一部粉红片。五人要跟足过往的游戏规则:每十分钟要有一场情慾戏、片长必须在七十至八十分钟之间、一律只有很低的製作费、要一星期内完成拍摄,其他一切自由发挥。结果证明五位导演不但玩得起,而且还玩得极有一手。
  盐田的《湿濡的女人》最先曝光,重新演绎「粉红」经典《湿濡的恋人们》,讲野性少女在海边故意湿身,然后贱价卖身给路过的男人。白石执导的《雌猫们》同样向经典《雌猫们之夜》致敬,新版搬到池袋街头上演,讲在网吧打趸的难民、单亲妈妈和不育人妻在夜间浪荡的性活动。行定勳的《撩乱的裸舞曲》则是原创故事,谐星板尾创路演脑闭塞导演,陷入了女色陷阱,搞到身败名裂。《午夜凶铃》导演中田秀夫初战成人世界,打动了九十后女优飞鸟凛全裸演出女同志故事《白百合》。向来出位的园子温就尽展其反叛本色,以毒攻毒,用色情反色情拍了《Antiporno》,找来前AKB成员富手麻妙首次全裸主演。
  「粉红映画」之所以留名几十年,是因为「淫」得有道,成本低但剧本扎实,而且是当时年轻新导磨练技艺的修罗场,《礼仪师》奥斯卡导演泷田洋二郎、《谈谈情,跳跳舞》的周防正行、《死亡笔记》的金子修介、《后乐园》已故导演森田芳光等大导出道时都拍过粉红片。停产了廿八年的粉红系列今次一口气推出五片,别具意义,将陆续于十一月底起在日本上映。


Video
ID                                       : 1
Format                                   : AVC
Format/Info                              : Advanced Video Codec
Format profile                           : HighL4.1
Format settings, CABAC                   : Yes
Format settings, ReFrames                : 4 frames
Codec ID                                 : V_MPEG4/ISO/AVC
Duration                                 : 1 h 20 min
Bit rate                                 : 10.3 Mb/s
Width                                    : 1 920 pixels
Height                                   : 1 038 pixels
Display aspect ratio                     : 1.85:1
Frame rate mode                          : Constant
Frame rate                               : 23.976 (24000/1001) FPS
Color space                              : YUV
Chroma subsampling                       : 4:2:0
Bit depth                                : 8 bits
Scan type                                : Progressive
Bits/(Pixel*Frame)                       : 0.215
Stream size                              : 5.75 GiB (96%)
Writing library                          : x264 core 129 r2245+704+36 8e61944 tMod+MixAQ [[email protected]:2:0 X86_64]
Encoding settings                        : cabac=1 / ref=4 / deblock=1:-3:-3 / analyse=0x3:0x133 / me=umh / subme=11 / psy=1 / fade_compensate=0.00 / psy_rd=1.05:0.10 / mixed_ref=1 / me_range=64 / chroma_me=1 / trellis=2 / 8x8dct=1 / cqm=0 / deadzone=21,11 / fast_pskip=0 / chroma_qp_offset=-3 / threads=18 / lookahead_threads=3 / sliced_threads=0 / nr=0 / decimate=0 / interlaced=0 / bluray_compat=0 / constrained_intra=0 / fgo=0 / bframes=10 / b_pyramid=2 / b_adapt=2 / b_bias=0 / direct=3 / weightb=1 / open_gop=0 / weightp=2 / keyint=250 / keyint_min=23 / scenecut=40 / intra_refresh=0 / rc=2pass / mbtree=0 / bitrate=10252 / ratetol=1.0 / qcomp=0.70 / qpmin=0 / qpmax=69 / qpstep=4 / cplxblur=20.0 / qblur=0.5 / ip_ratio=1.40 / pb_ratio=1.30 / aq=1 / aq-strength=0.90 / aq-sensitivity=10.00 / aq-ifactor=1.00 / aq-pfactor=1.00 / aq-bfactor=1.00 / aq2=0
Language                                 : Japanese
Default                                  : Yes
Forced                                   : No

Audio
ID                                       : 2
Format                                   : AC-3
Format/Info                              : Audio Coding 3
Format settings, Endianness              : Big
Codec ID                                 : A_AC3
Duration                                 : 1 h 20 min
Bit rate mode                            : Constant
Bit rate                                 : 448 kb/s
Channel(s)                               : 6 channels
Channel positions                        : Front: L C R, Side: L R, LFE
Sampling rate                            : 48.0 kHz
Frame rate                               : 31.250 FPS (1536 spf)
Bit depth                                : 16 bits
Compression mode                         : Lossy
Stream size                              : 257 MiB (4%)
Language                                 : Japanese
Service kind                             : Complete Main
Default                                  : Yes
Forced                                   : No

Text #1
ID                                       : 3
Format                                   : UTF-8
Codec ID                                 : S_TEXT/UTF8
Codec ID/Info                            : UTF-8 Plain Text
Duration                                 : 1 h 19 min
Bit rate                                 : 19 b/s
Count of elements                        : 606
Stream size                              : 11.5 KiB (0%)
Title                                    : Simplified
Language                                 : Chinese
Default                                  : Yes
Forced                                   : No

Text #2
ID                                       : 4
Format                                   : UTF-8
Codec ID                                 : S_TEXT/UTF8
Codec ID/Info                            : UTF-8 Plain Text
Duration                                 : 1 h 19 min
Bit rate                                 : 19 b/s
Count of elements                        : 606
Stream size                              : 11.5 KiB (0%)
Title                                    : Traditional
Language                                 : Chinese
Default                                  : No
Forced                                   : No

Menu
00:00:00.000                             : en:00:00:00.000
00:17:23.667                             : en:00:17:23.667
00:28:42.846                             : en:00:28:42.846
00:43:28.772                             : en:00:43:28.772
00:59:43.997                             : en:00:59:43.997
01:09:41.135                             : en:01:09:41.135
01:20:16.353                             : en:01:20:16.353






                                                                                                                                                                  
White.Lily.2016.1080p.BluRay.x264-WiKi[bt天堂 www.btbt4.com].torrent (60.54 KB)

回复

使用道具 举报

您需要登录后才可以回帖 登录 | 立即注册

本版积分规则

5n电影网  |网站地图

本网站所有资源来自网络,如无意中侵犯了您的权益,请发邮件至 [email protected],立即清除相关链接

GMT+8, 2019-11-12 11:33 , Processed in 0.085619 second(s), 31 queries .

Powered by Discuz! X3.2

© 2001-2013 Comsenz Inc.

快速回复 返回顶部 返回列表