请选择 进入手机版 | 继续访问电脑版

5n电影网

 找回密码
 立即注册

第四类接触 The.Fourth.Kind.2009.1080p.BluRay.x264-METiS 6.56GB

[复制链接]
:第四类接触 The.Fourth.Kind.2009.1080p.BluRay.x264-METiS 6.56GB




◎译  名 第四类接触 / The 4th Kind / 天外来吓 / 第4异种
◎片  名 The Fourth Kind
◎年  代 2009
◎产  地 美国
◎类  别 科幻 / 悬疑 / 惊悚 / 恐怖
◎语  言 英语
◎上映日期 2009-11-06
◎导  演 Olatunde Osunsanmi
◎编  剧 Olatunde Osunsanmi
◎主  演 Milla Jovovich
      Elias Koteas
      Will Patton
      Corey Johnson
      Hakeem Kae-Kazim


◎标  签 科幻 | 惊悚 | 美国 | 悬疑 | 恐怖 | 美国电影 | 2009 | MillaJovovich

◎简  介  

  美国阿拉斯加德诺曼小镇,在过去的几十年里当地不断发生离奇事件。许多人神秘失踪,还有很多人被严重的失眠所困扰,自杀案件居高不下。单身母亲阿比盖尔?泰勒(米拉·乔沃维奇 Milla Jovovich 饰)当年曾经历一场诡异的灾难,在那场灾难中,睡在身边的丈夫神秘死亡。在此之后,阿比盖尔开始研究催眠。当得知诺曼镇发生的事情时,她直觉这与自己的经历有很大关系。经过对几名当事人的催眠,阿比盖尔得知他们都有着遭遇莫名生物的经历,在此期间,她更目睹了当事人杀害全家并自杀的悲惨场面。随着调查的深入,真相渐渐浮出水面,然而最为恐怖的事情也随之发生……
本片据传由真实事件改编。
Video
ID                                       : 3
Format                                   : AVC
Format/Info                              : Advanced Video Codec
Format settings, CABAC                   : Yes
Format settings, ReFrames                : 5 frames
Codec ID                                 : V_MPEG4/ISO/AVC
Duration                                 : 1 h 38 min
Bit rate                                 : 8 071 kb/s
Width                                    : 1 920 pixels
Height                                   : 816 pixels
Display aspect ratio                     : 2.35:1
Frame rate mode                          : Constant
Frame rate                               : 23.976 FPS
Color space                              : YUV
Chroma subsampling                       : 4:2:0
Bit depth                                : 8 bits
Scan type                                : Progressive
Bits/(Pixel*Frame)                       : 0.215
Stream size                              : 5.39 GiB (82%)
Writing library                          : x264 core 88 r1471 1144615
Encoding settings                        : cabac=1 / ref=5 / deblock=1:0:0 / analyse=0x3:0x133 / me=umh / subme=7 / psy=1 / psy_rd=1.00:0.00 / mixed_ref=1 / me_range=16 / chroma_me=1 / trellis=1 / 8x8dct=1 / cqm=0 / deadzone=21,11 / fast_pskip=1 / chroma_qp_offset=-2 / threads=6 / sliced_threads=0 / nr=0 / decimate=1 / mbaff=0 / constrained_intra=0 / bframes=3 / b_pyramid=2 / b_adapt=2 / b_bias=0 / direct=3 / wpredb=1 / wpredp=2 / keyint=250 / keyint_min=25 / scenecut=40 / intra_refresh=0 / rc=2pass / mbtree=0 / bitrate=8071 / ratetol=1.0 / qcomp=0.60 / qpmin=10 / qpmax=51 / qpstep=4 / cplxblur=20.0 / qblur=0.5 / ip_ratio=1.40 / pb_ratio=1.30 / aq=1:1.00
Language                                 : English
Default                                  : No
Forced                                   : No

Audio
ID                                       : 1
Format                                   : DTS
Format/Info                              : Digital Theater Systems
Mode                                     : 16
Format settings, Endianness              : Big
Codec ID                                 : A_DTS
Duration                                 : 1 h 38 min
Bit rate mode                            : Constant
Bit rate                                 : 1 509 kb/s
Channel(s)                               : 6 channels
Channel positions                        : Front: L C R, Side: L R, LFE
Sampling rate                            : 48.0 kHz
Frame rate                               : 93.750 FPS (512 spf)
Bit depth                                : 24 bits
Compression mode                         : Lossy
Stream size                              : 1.03 GiB (16%)
Title                                    : DTS 1509 Kbps
Language                                 : English
Default                                  : Yes
Forced                                   : No

Text
ID                                       : 2
Format                                   : UTF-8
Codec ID                                 : S_TEXT/UTF8
Codec ID/Info                            : UTF-8 Plain Text
Language                                 : English
Default                                  : No
Forced                                   : No



                                                                                                                                                                                                        
                                                                                                                                                                                                                                                                                                                                                                                                                                                                                                                                                                                                                                                                                                                                                                                                                                                        
c3ddeb9f4a5f8344efeb7ae804220be0.torrent (66.01 KB)

回复

使用道具 举报

您需要登录后才可以回帖 登录 | 立即注册

本版积分规则

5n电影网  |网站地图

本网站所有资源来自网络,如无意中侵犯了您的权益,请发邮件至 [email protected],立即清除相关链接

GMT+8, 2019-6-17 23:57 , Processed in 0.075760 second(s), 31 queries .

Powered by Discuz! X3.2

© 2001-2013 Comsenz Inc.

快速回复 返回顶部 返回列表