请选择 进入手机版 | 继续访问电脑版

5n电影网

 找回密码
 立即注册

破碎之城/惊爆危城 Broken.City.2013.1080p.BluRay.x264-DAA 7.64GB

[复制链接]
电影bt 发表于 2019-6-13 04:09:10 | 显示全部楼层 |阅读模式


帖子完整标题:破碎之城/惊爆危城 Broken.City.2013.1080p.BluRay.x264-DAA 7.64GB




◎译  名 破碎之城 / 惊爆危城(台)
◎片  名 Broken City
◎年  代 2013
◎产  地 美国
◎类  别 剧情 / 惊悚 / 犯罪
◎语  言 英语
◎上映日期 2013-01-18(美国)
◎IMDb评分  6.2/10 from 71705 users
◎片  长 109分钟
◎导  演 艾伦·休斯 Allen Hughes
◎编  剧 布莱恩·塔克特 Brian Tucker
◎主  演 马克·沃尔伯格 Mark Wahlberg
      罗素·克劳 Russell Crowe
      凯瑟琳·泽塔-琼斯 Catherine Zeta-Jones
      杰弗里·怀特 Jeffrey Wright
      巴里·佩珀 Barry Pepper
      阿隆娜·塔尔 Alona Tal
      娜塔丽·马丁内兹 Natalie Martinez
      詹姆斯· 兰索恩 James Ransone


◎标  签 美国 | 犯罪 | 政治 | 剧情 | 2013 | 悬疑 | 动作 | 惊悚

◎简  介  

  比利·塔吉特(马克·沃尔伯格 Mark Wahlberg 饰)是一名备受尊敬的纽约警察。然而在一次追捕杀人犯人中致后者死亡,最终审判结果被私下篡改,犯人被定为自卫,而被市民称为“英雄”的塔吉特却被迫离开警局。
7年后,塔吉特以一名私家侦探的身份重新出现,然而市场并不景气,濒临破产之际,市长霍斯泰特勒(罗素·克劳 Russell Crowe 饰)找到他,让他帮忙查出妻子凯瑟琳(凯瑟琳·泽塔-琼斯 Catherine Zeta-Jones 饰)的情夫。然而事成之后,塔吉特却渐渐发现事件并非表面上那么简单,在此背后隐藏的政权利益、金钱交易和肉体买卖仿佛黑幕般笼罩着纽约这座破碎之城,牵扯其中的甚至还有7年前自己那桩冤案……
Video
ID                                       : 1
Format                                   : AVC
Format/Info                              : Advanced Video Codec
Format settings                          : CABAC / 5 Ref Frames
Format settings, CABAC                   : Yes
Format settings, ReFrames                : 5 frames
Codec ID                                 : V_MPEG4/ISO/AVC
Duration                                 : 1 h 48 min
Bit rate                                 : 8 560 kb/s
Width                                    : 1 920 pixels
Height                                   : 800 pixels
Display aspect ratio                     : 2.40:1
Frame rate mode                          : Constant
Frame rate                               : 23.976 (24000/1001) FPS
Color space                              : YUV
Chroma subsampling                       : 4:2:0
Bit depth                                : 8 bits
Scan type                                : Progressive
Bits/(Pixel*Frame)                       : 0.232
Stream size                              : 6.35 GiB (83%)
Writing library                          : x264 core 130 r2273kMod b3065e6
Encoding settings                        : cabac=1 / ref=5 / deblock=1:0:0 / analyse=0x3:0x133 / me=umh / subme=7 / psy=1 / fade_compensate=0.00 / psy_rd=1.00:0.00 / mixed_ref=1 / me_range=16 / chroma_me=1 / trellis=1 / 8x8dct=1 / cqm=0 / deadzone=21,11 / fast_pskip=1 / chroma_qp_offset=-2 / threads=18 / lookahead_threads=3 / sliced_threads=0 / nr=0 / decimate=1 / interlaced=0 / bluray_compat=0 / constrained_intra=0 / bframes=3 / b_pyramid=2 / b_adapt=2 / b_bias=0 / direct=3 / weightb=1 / open_gop=0 / weightp=2 / keyint=250 / keyint_min=23 / scenecut=40 / intra_refresh=0 / rc_lookahead=40 / rc=2pass / mbtree=1 / bitrate=8560 / ratetol=1.0 / qcomp=0.60 / qpmin=0 / qpmax=69 / qpstep=4 / cplxblur=20.0 / qblur=0.5 / ip_ratio=1.40 / aq=1:1.00
Default                                  : Yes
Forced                                   : No

Audio
ID                                       : 3
Format                                   : DTS
Format/Info                              : Digital Theater Systems
Codec ID                                 : A_DTS
Duration                                 : 1 h 48 min
Bit rate mode                            : Constant
Bit rate                                 : 1 509 kb/s
Channel(s)                               : 6 channels
Channel positions                        : Front: L C R, Side: L R, LFE
Sampling rate                            : 48.0 kHz
Frame rate                               : 93.750 FPS (512 SPF)
Bit depth                                : 24 bits
Compression mode                         : Lossy
Stream size                              : 1.15 GiB (15%)
Language                                 : English
Default                                  : Yes
Forced                                   : No

Text
ID                                       : 2
Format                                   : UTF-8
Codec ID                                 : S_TEXT/UTF8
Codec ID/Info                            : UTF-8 Plain Text
Language                                 : English
Default                                  : Yes
Forced                                   : No



                                                                                                                                                                                                        
                                                                                                                                                                                                                                                                                                                                                                                                                                                                                                                                                                                                                                                                                                                                                                                                                                                        
ab794ca71af6545873df8c2d69652660.torrent (76.94 KB)

回复

使用道具 举报

您需要登录后才可以回帖 登录 | 立即注册

本版积分规则

5n电影网  |网站地图

本网站所有资源来自网络,如无意中侵犯了您的权益,请发邮件至 [email protected],立即清除相关链接

GMT+8, 2019-9-21 15:24 , Processed in 0.074036 second(s), 31 queries .

Powered by Discuz! X3.2

© 2001-2013 Comsenz Inc.

快速回复 返回顶部 返回列表