请选择 进入手机版 | 继续访问电脑版

5n电影网

 找回密码
 立即注册

尸骨无存3:零号病人/尸骨无存3 Cabin.Fever.III.Patient.Zero.2014.10...

[复制链接]
电影天堂 发表于 2019-6-13 04:09:10 | 显示全部楼层 |阅读模式


帖子完整标题:尸骨无存3:零号病人/尸骨无存3 Cabin.Fever.III.Patient.Zero.2014.1080p.BluRay.X264-iNVANDRAREN 6.56GB




◎译  名 尸骨无存3:零号病人 / 尸骨无存3
◎片  名 Cabin Fever: Patient Zero
◎年  代 2013
◎产  地 美国
◎类  别 恐怖
◎语  言 英语
◎上映日期 2014-02-06
◎IMDb评分  4.4/10 from 6403 users
◎片  长 91分钟
◎导  演 Kaare Andrews
◎编  剧 Jake Wade Wall
◎主  演 Sean Astin
      Jillian Murray
      Currie Graham |


◎标  签 恐怖 | 血腥 | 美国 | 重口 | 惊悚 | 美国电影 | 2013 | 至少我从前到尾看完了

◎简  介  

  在风光旖旎、浪漫温暖的加勒比海滨,青年马库斯(Mitch Ryan 饰)和他美丽的新娘凯特(Claudette Lali 饰)举行盛大的婚礼。婚礼间隙,马库斯带着的弟弟乔希(Brando Eaton 饰)、美丽姑娘佩妮(Jillian Murray 饰)、好朋友多布斯(Ryan Donowho 饰)以及等人乘坐游艇出航玩耍。他们来到一座无人荒岛冒险,尽享快乐之余,却不知道死神的脚步正在一点点逼近。不久前神秘而恐怖的病毒在岛上肆意蔓延,造成了巨大的伤亡。而作为唯一幸存者的男子波特(Sean Astin 饰)由于恼恨儿子的死,不仅拒绝和相关研究者合作,还恶意散播他体内的病毒。
无意中步入这片死地的马库斯等人,发现了岛上隐藏的秘密,同时迎来了生命中最为恐怖的时刻……
Video
ID                                       : 1
Format                                   : AVC
Format/Info                              : Advanced Video Codec
Format settings, CABAC                   : Yes
Format settings, ReFrames                : 4 frames
Codec ID                                 : V_MPEG4/ISO/AVC
Duration                                 : 1 h 34 min
Bit rate                                 : 8 404 kb/s
Width                                    : 1 920 pixels
Height                                   : 1 080 pixels
Display aspect ratio                     : 16:9
Frame rate mode                          : Constant
Frame rate                               : 23.976 (24000/1001) FPS
Color space                              : YUV
Chroma subsampling                       : 4:2:0
Bit depth                                : 8 bits
Scan type                                : Progressive
Bits/(Pixel*Frame)                       : 0.169
Stream size                              : 5.43 GiB (83%)
Writing library                          : x264 core 142 r2431kMod ac76440
Encoding settings                        : cabac=1 / ref=4 / deblock=1:0:0 / analyse=0x3:0x133 / me=umh / subme=7 / psy=1 / fade_compensate=0.00 / psy_rd=1.00:0.00 / mixed_ref=1 / me_range=16 / chroma_me=1 / trellis=1 / 8x8dct=1 / cqm=0 / deadzone=21,11 / fast_pskip=0 / chroma_qp_offset=-2 / threads=6 / lookahead_threads=1 / sliced_threads=0 / nr=0 / decimate=1 / interlaced=0 / bluray_compat=0 / constrained_intra=0 / fgo=0 / bframes=3 / b_pyramid=2 / b_adapt=2 / b_bias=0 / direct=3 / weightb=1 / open_gop=0 / weightp=2 / keyint=250 / keyint_min=23 / scenecut=40 / intra_refresh=0 / rc_lookahead=50 / rc=2pass / mbtree=1 / bitrate=8404 / ratetol=1.0 / qcomp=0.60 / qpmin=0 / qpmax=69 / qpstep=4 / cplxblur=20.0 / qblur=0.5 / ip_ratio=1.40 / aq=1:1.00
Language                                 : English
Default                                  : No
Forced                                   : No

Audio
ID                                       : 2
Format                                   : DTS
Format/Info                              : Digital Theater Systems
Mode                                     : 16
Format settings, Endianness              : Big
Codec ID                                 : A_DTS
Duration                                 : 1 h 34 min
Bit rate mode                            : Constant
Bit rate                                 : 1 509 kb/s
Channel(s)                               : 6 channels
Channel positions                        : Front: L C R, Side: L R, LFE
Sampling rate                            : 48.0 kHz
Frame rate                               : 93.750 FPS (512 spf)
Bit depth                                : 24 bits
Compression mode                         : Lossy
Stream size                              : 1 022 MiB (15%)
Language                                 : English
Default                                  : Yes
Forced                                   : No



                                                                                                                                                                                                        
                                                                                                                                                                                                                                                                                                                                                                                                                                                                                                                                                                                                                                                                                                                                                                                                                                                        
bf9fa11277432ff08c59955eca02bbf6.torrent (66.2 KB)

回复

使用道具 举报

您需要登录后才可以回帖 登录 | 立即注册

本版积分规则

5n电影网  |网站地图

本网站所有资源来自网络,如无意中侵犯了您的权益,请发邮件至 [email protected],立即清除相关链接

GMT+8, 2019-6-26 00:53 , Processed in 0.082267 second(s), 31 queries .

Powered by Discuz! X3.2

© 2001-2013 Comsenz Inc.

快速回复 返回顶部 返回列表