请选择 进入手机版 | 继续访问电脑版

5n电影网

 找回密码
 立即注册

尸骨无存/舱热症 Cabin.Fever.2002.UNRATED.DC.1080p.BluRay.x264.DTS-FGT ...

[复制链接]
电影首发 发表于 2019-6-13 04:09:10 | 显示全部楼层 |阅读模式


帖子完整标题:尸骨无存/舱热症 Cabin.Fever.2002.UNRATED.DC.1080p.BluRay.x264.DTS-FGT 8.83GB




◎译  名 尸骨无存 / 舱热症
◎片  名 Cabin Fever
◎年  代 2002
◎产  地 美国
◎类  别 惊悚 / 恐怖
◎语  言 英语
◎上映日期 2002-09-14
◎IMDb评分  5.6/10 from 70079 users
◎片  长 91分钟
◎导  演 Eli Roth
◎编  剧 Eli Roth / Randy Pearlstein
◎主  演 Rider Strong
      Jordan Ladd
      James DeBello


◎标  签 恐怖 | 血腥 | 美国 | 惊悚 | 病毒 | 2002 | 美国电影 | 尸骨无存

◎简  介  

  毕业在即,某大学5名好友:杰夫(乔伊·卡恩 Joey Kern 饰)、卡伦(乔登·蕾德 Jordan Ladd 饰)、保罗(雷德·斯壮 Rider Strong 饰)、玛茜(席瑞娜·文森 Cerina Vincent 饰)和伯特(詹姆斯·德贝洛 James DeBello 饰)相约远离城市喧嚣,一起来到深山中的小屋度假狂欢。但是他们的欢乐很快为恐慌所取代,在山上他们遇见一个血肉模糊、全身溃烂的男子。此后不久,卡伦的身上也出现类似症状,她似乎被之前那个男人身上的病毒所感染,很快便死于非命。死神遽然降临,这群年轻人的生命和友情受到莫大考验……
本片荣获2003年葡萄牙亚洲奇幻电影节最佳国际影片第三名、2002年Sitges – Catalonian国际电影节最佳化妆奖。
Video
ID                                       : 1
Format                                   : AVC
Format/Info                              : Advanced Video Codec

Format settings, CABAC                   : Yes
Format settings, ReFrames                : 4 frames
Codec ID                                 : V_MPEG4/ISO/AVC
Duration                                 : 1 h 37 min
Bit rate                                 : 11.5 Mb/s
Width                                    : 1 920 pixels
Height                                   : 800 pixels
Display aspect ratio                     : 2.40:1
Frame rate mode                          : Constant
Frame rate                               : 23.976 (24000/1001) FPS
Color space                              : YUV
Chroma subsampling                       : 4:2:0
Bit depth                                : 8 bits
Scan type                                : Progressive
Bits/(Pixel*Frame)                       : 0.312
Stream size                              : 7.62 GiB (86%)
Writing library                          : x264 core 148 r2748 97eaef2
Encoding settings                        : cabac=1 / ref=4 / deblock=1:-2:-2 / analyse=0x3:0x113 / me=umh / subme=7 / psy=1 / psy_rd=1.00:0.15 / mixed_ref=1 / me_range=16 / chroma_me=1 / trellis=1 / 8x8dct=1 / cqm=0 / deadzone=21,11 / fast_pskip=1 / chroma_qp_offset=-3 / threads=24 / lookahead_threads=3 / sliced_threads=0 / nr=0 / decimate=1 / interlaced=0 / bluray_compat=0 / constrained_intra=0 / bframes=3 / b_pyramid=2 / b_adapt=1 / b_bias=0 / direct=3 / weightb=1 / open_gop=0 / weightp=2 / keyint=250 / keyint_min=25 / scenecut=40 / intra_refresh=0 / rc_lookahead=50 / rc=abr / mbtree=1 / bitrate=11500 / ratetol=1.0 / qcomp=0.60 / qpmin=0 / qpmax=69 / qpstep=4 / vbv_maxrate=31250 / vbv_bufsize=31250 / nal_hrd=none / filler=0 / ip_ratio=1.40 / aq=1:1.00
Default                                  : Yes
Forced                                   : No

Audio
ID                                       : 2
Format                                   : DTS
Format/Info                              : Digital Theater Systems
Mode                                     : 16
Format settings, Endianness              : Big
Codec ID                                 : A_DTS
Duration                                 : 1 h 37 min
Bit rate mode                            : Constant
Bit rate                                 : 1 509 kb/s
Channel(s)                               : 6 channels
Channel positions                        : Front: L C R, Side: L R, LFE
Sampling rate                            : 48.0 kHz
Frame rate                               : 93.750 FPS (512 spf)
Bit depth                                : 24 bits
Compression mode                         : Lossy
Stream size                              : 1.03 GiB (12%)
Language                                 : English
Default                                  : No
Forced                                   : No

Text
ID                                       : 3
Format                                   : UTF-8
Codec ID                                 : S_TEXT/UTF8
Codec ID/Info                            : UTF-8 Plain Text
Language                                 : English
Default                                  : Yes
Forced                                   : No



                                                                                                                                                                                                        
                                                                                                                                                                                                                                                                                                                                                                                                                                                                                                                                                                                                                                                                                                                                                                                                                                                        
c014dc938641193f4e017dbcea91bd3a.torrent (88.89 KB)

回复

使用道具 举报

您需要登录后才可以回帖 登录 | 立即注册

本版积分规则

5n电影网  |网站地图

本网站所有资源来自网络,如无意中侵犯了您的权益,请发邮件至 [email protected],立即清除相关链接

GMT+8, 2019-9-16 13:02 , Processed in 0.085864 second(s), 31 queries .

Powered by Discuz! X3.2

© 2001-2013 Comsenz Inc.

快速回复 返回顶部 返回列表