请选择 进入手机版 | 继续访问电脑版

5n电影网

 找回密码
 立即注册

地球停转之日/地球停止转动 The.Day.The.Earth.Stood.Still.1951.1080...

[复制链接]
电影bt 发表于 2019-6-13 04:09:10 | 显示全部楼层 |阅读模式


帖子完整标题:地球停转之日/地球停止转动 The.Day.The.Earth.Stood.Still.1951.1080p.BluRay.x264.DTS-FGT 8.34GB




◎译  名 地球停转之日 / 地球停止转动 / 地球停顿记 / 地球末日记
◎片  名 The Day the Earth Stood Still
◎年  代 1951
◎产  地 美国
◎类  别 剧情 / 科幻 / 惊悚
◎语  言 英语 / 法语 / 北印度语
◎上映日期 1951-09-28
◎导  演 Robert Wise
◎编  剧 Edmund H. North
◎主  演 Michael Rennie
      Patricia Neal
      Hugh Marlowe
      Sam Jaffe
      Billy Gray


◎标  签 科幻 | 美国 | 1951 | 经典 | 美国电影 | 地球停转之日 | 罗伯特·怀斯 | 电影

◎简  介  

  随着科技的不断发展,人类赖以生存的地球却受到越来越严重的污染和威胁。某天,一架巨大的飞碟出现在地球上空,引起各国民众一片恐慌,谁也不知道这个不速之客将对他们的命运带来怎样的影响。飞碟最终降落在美国华盛顿公园的中央,当地警察和军队倾巢出动。飞碟被全副武装的军人和好奇的民众团团围住,经过两个小时的对峙,悬梯从飞碟中缓缓探出。随着舱门的打开,一个身形与人类别无二致的外星人克拉图(Michael Rennie 饰)和全身金属的机器人出现在众人面前。这两个外星人似乎为了地球的命运而来,他们表示出友好,却未得到应有的回报……
本片荣获1952年金球奖最佳促进国际了解电影奖。

◎获奖情况  

  第9届金球奖(1952)
  电影类 最佳原创配乐(提名) 伯纳德·赫尔曼
  电影类 最佳促进国际了解电影 罗伯特·怀斯


Video
ID                                       : 1
Format                                   : AVC
Format/Info                              : Advanced Video Codec
Format settings, CABAC                   : Yes
Format settings, ReFrames                : 4 frames
Codec ID                                 : V_MPEG4/ISO/AVC
Duration                                 : 1h 32mn
Bit rate                                 : 11.5 Mbps
Width                                    : 1 444 pixels
Height                                   : 1 080 pixels
Display aspect ratio                     : 4:3
Frame rate mode                          : Constant
Frame rate                               : 23.976 (24000/1001) fps
Color space                              : YUV
Chroma subsampling                       : 4:2:0
Bit depth                                : 8 bits
Scan type                                : Progressive
Bits/(Pixel*Frame)                       : 0.308
Stream size                              : 7.20 GiB (86%)
Writing library                          : x264 core 148 r2638 7599210
Encoding settings                        : cabac=1 / ref=4 / deblock=1:-2:-2 / analyse=0x3:0x113 / me=umh / subme=7 / psy=1 / psy_rd=1.00:0.15 / mixed_ref=1 / me_range=16 / chroma_me=1 / trellis=1 / 8x8dct=1 / cqm=0 / deadzone=21,11 / fast_pskip=1 / chroma_qp_offset=-3 / threads=12 / lookahead_threads=3 / sliced_threads=0 / nr=0 / decimate=1 / interlaced=0 / bluray_compat=0 / constrained_intra=0 / bframes=3 / b_pyramid=2 / b_adapt=2 / b_bias=0 / direct=3 / weightb=1 / open_gop=0 / weightp=2 / keyint=250 / keyint_min=25 / scenecut=40 / intra_refresh=0 / rc_lookahead=50 / rc=abr / mbtree=1 / bitrate=11500 / ratetol=1.0 / qcomp=0.60 / qpmin=0 / qpmax=69 / qpstep=4 / vbv_maxrate=31250 / vbv_bufsize=31250 / nal_hrd=none / filler=0 / ip_ratio=1.40 / aq=1:1.00
Language                                 : English
Default                                  : Yes
Forced                                   : No

Audio
ID                                       : 2
Format                                   : DTS
Format/Info                              : Digital Theater Systems
Mode                                     : 16
Format settings, Endianness              : Big
Codec ID                                 : A_DTS
Duration                                 : 1h 32mn
Bit rate mode                            : Constant
Bit rate                                 : 1 509 Kbps
Channel(s)                               : 6 channels
Channel positions                        : Front: L C R, Side: L R, LFE
Sampling rate                            : 48.0 KHz
Frame rate                               : 93.750 fps (512 spf)
Bit depth                                : 24 bits
Compression mode                         : Lossy
Stream size                              : 995 MiB (12%)
Language                                 : English
Default                                  : Yes
Forced                                   : No



                                                                                                                                                                                                        
                                                                                                                                                                                                                                                                                                                                                                                                                                                                                                                                                                                                                                                                                                                                                                                                                                                        
7df1a5722ad58a432b6ce416d586af87.torrent (84.04 KB)

回复

使用道具 举报

您需要登录后才可以回帖 登录 | 立即注册

本版积分规则

5n电影网  |网站地图

本网站所有资源来自网络,如无意中侵犯了您的权益,请发邮件至 [email protected],立即清除相关链接

GMT+8, 2019-8-25 23:54 , Processed in 0.139004 second(s), 31 queries .

Powered by Discuz! X3.2

© 2001-2013 Comsenz Inc.

快速回复 返回顶部 返回列表