请选择 进入手机版 | 继续访问电脑版

5n电影网

 找回密码
 立即注册

一酷到底/毙酷 Be.Cool.2005.1080p.BluRay.x264-Japhson 8.73GB

[复制链接]
电影bt 发表于 2019-6-13 04:09:10 | 显示全部楼层 |阅读模式
-->



帖子完整标题:一酷到底/毙酷 Be.Cool.2005.1080p.BluRay.x264-Japhson 8.73GB




◎译  名 一酷到底 / 毙酷 / 矮子当道2 / 音乐型人 / 黑道当家2 / 黑道比酷
◎片  名 Be Cool
◎年  代 2005
◎产  地 美国
◎类  别 喜剧 / 犯罪
◎语  言 英语 / 俄语
◎上映日期 2005-03-04
◎IMDb评分  5.7/10 from 64701 users
◎  >◎豆瓣评分 6.9/10 from 4904 users
◎ 
◎片  长 118 分钟
◎导  演 F. Gary Gray
◎编  剧 Peter Steinfeld
◎主  演 约翰·特拉沃尔塔 John Travolta
      乌玛·瑟曼 Uma Thurman
      文斯·沃恩 Vince Vaughn
      塞德里克·凯尔斯 Cedric the Entertainer
      安德雷·本杰明 André Benjamin
      史蒂芬·泰勒 Steven Tyler
      罗伯特·帕斯托莱利 Robert Pastorelli
      克里斯蒂娜·米利安 Christina Milian
      保罗·安德斯坦 Paul Adelstein
      黛比·玛扎 Debi Mazar
      Gregory Alan Williams
      哈威·凯特尔 Harvey Keitel
      道恩·强森 Dwayne Johnson
      丹尼·德维托 Danny DeVito
      詹姆斯·伍兹 James Woods


◎标  签 喜剧 | 美国 | 黑色幽默 | JohnTravolta | 黑帮 | 约翰·特拉沃尔塔 | 美国电影 | UmaThurman

◎简  介  

  奇利·帕尔默(约翰·特拉沃尔塔 John Travolta 饰)曾经是混迹黑道的嚣张人物,不过黑道混久了,或许是因为厌倦,很多人开始洗白自己,找份体面的工作,得到社会的认可。奇利也不例外,从黑道退役后,他摇身变作好莱坞电影制片人,纯熟的社交手段使他的事业蒸蒸日上,名气大增,尝到甜头的奇利开始进军乐坛。他找来一位开唱片公司的朋友,不料朋友却意外死亡,奇利只好寄望于这位朋友的妻子艾迪(乌玛·瑟曼 Uma Thurman 饰),艾迪也是个狠角色,两人磨合良久才达成共识,决意捧红一名有着优异音乐天赋的黑人女孩琳达,然而事情却并非想象中顺利,琳达的经纪人为了留住琳达,使尽刁钻权术,而更令人意想不到的是,琳达竟然同时在被俄罗斯的黑手党秘密追杀。面对混乱的局面,已金盆洗手的奇利是否要重操旧业,摆平一切呢?
本片为1995年经典喜剧片《黑道之家》续集,改编自畅销作家艾尔蒙·里欧纳德(Elmore Leonard)的同名小说。
Video
ID                                       : 1
Format                                   : AVC
Format/Info                              : Advanced Video Codec
Format profile                           : [email protected]
Format settings, CABAC                   : Yes
Format settings, ReFrames                : 5 frames
Muxing mode                              : Header stripping
Codec ID                                 : V_MPEG4/ISO/AVC
Duration                                 : 1 h 59 min
Bit rate                                 : 8 948 kb/s
Width                                    : 1 920 pixels
Height                                   : 800 pixels
Display aspect ratio                     : 2.40:1
Frame rate mode                          : Constant
Frame rate                               : 23.976 (24000/1001) FPS
Color space                              : YUV
Chroma subsampling                       : 4:2:0
Bit depth                                : 8 bits
Scan type                                : Progressive
Bits/(Pixel*Frame)                       : 0.243
Stream size                              : 7.30 GiB (84%)
Writing library                          : x264 core 115 r1937 aa21558
Encoding settings                        : cabac=1 / ref=5 / deblock=1:-1:-1 / analyse=0x3:0x113 / me=umh / subme=7 / psy=1 / psy_rd=1.00:0.00 / mixed_ref=1 / me_range=16 / chroma_me=1 / trellis=1 / 8x8dct=1 / cqm=0 / deadzone=21,11 / fast_pskip=1 / chroma_qp_offset=-2 / threads=12 / sliced_threads=0 / nr=0 / decimate=1 / interlaced=0 / bluray_compat=0 / constrained_intra=0 / bframes=3 / b_pyramid=2 / b_adapt=2 / b_bias=0 / direct=3 / weightb=1 / open_gop=0 / weightp=2 / keyint=250 / keyint_min=23 / scenecut=40 / intra_refresh=0 / rc_lookahead=40 / rc=2pass / mbtree=1 / bitrate=8948 / ratetol=1.0 / qcomp=0.60 / qpmin=0 / qpmax=69 / qpstep=4 / cplxblur=20.0 / qblur=0.5 / vbv_maxrate=50000 / vbv_bufsize=50000 / nal_hrd=none / ip_ratio=1.40 / aq=1:1.00
Language                                 : English
Default                                  : Yes
Forced                                   : Yes

Audio
ID                                       : 2
Format                                   : DTS
Format/Info                              : Digital Theater Systems
Mode                                     : 16
Format settings, Endianness              : Big
Muxing mode                              : Header stripping
Codec ID                                 : A_DTS
Duration                                 : 1 h 59 min
Bit rate mode                            : Constant
Bit rate                                 : 1 509 kb/s
Channel(s)                               : 6 channels
Channel positions                        : Front: L C R, Side: L R, LFE
Sampling rate                            : 48.0 kHz
Frame rate                               : 93.750 FPS (512 spf)
Bit depth                                : 24 bits
Compression mode                         : Lossy
Stream size                              : 1.26 GiB (14%)
Language                                 : English
Default                                  : Yes
Forced                                   : Yes

Text
ID                                       : 3
Format                                   : UTF-8
Codec ID                                 : S_TEXT/UTF8
Codec ID/Info                            : UTF-8 Plain Text
Language                                 : English
Default                                  : Yes
Forced                                   : No



                                                                                                                                                                                                        
                                                                                                                                                                                                                                                                                                                                                                                                                                                                                                                                                                                                                                                                                                                                                                                                                                                        
d38957c746f5bd56e6c0c07cd34978f7.torrent (87.84 KB)

回复

使用道具 举报

您需要登录后才可以回帖 登录 | 立即注册

本版积分规则

5n电影网  |网站地图

本网站所有资源来自网络,如无意中侵犯了您的权益,请发邮件至 [email protected],立即清除相关链接

GMT+8, 2019-9-21 15:26 , Processed in 0.080802 second(s), 31 queries .

Powered by Discuz! X3.2

© 2001-2013 Comsenz Inc.

快速回复 返回顶部 返回列表