请选择 进入手机版 | 继续访问电脑版

5n电影网

 找回密码
 立即注册

天使之心/天使心 Angel.Heart.1987.1080p.BluRay.x264-CiNEFiLE 7.95GB

[复制链接]


帖子完整标题:天使之心/天使心 Angel.Heart.1987.1080p.BluRay.x264-CiNEFiLE 7.95GB




◎译  名 天使之心 / 天使心 / 天使追魂 / 安格尔的心 / 赤裸天使
◎片  名 Angel Heart
◎年  代 1987
◎产  地 美国 / 加拿大 / 英国
◎类  别 悬疑 / 惊悚 / 恐怖
◎语  言 英语 / 法语
◎上映日期 1988-11-17
◎IMDb评分  7.3/10 from 73043 users
◎片  长 113 分钟
◎导  演 艾伦·帕克 Alan Parker
◎编  剧 William Hjortsberg / 艾伦·帕克 Alan Parker
◎主  演 罗伯特·德尼罗 Robert De Niro
      米基·洛克 Mickey Rourke
      莉莎·博内特 Lisa Bonet
      夏洛特·兰普林 Charlotte Rampling
      Stocker Fontelieu
      Brownie McGhee
      Michael Higgins
      Eliott Keener
      Charles Gordone
      Dann Florek
      凯瑟琳·威尔霍特 Kathleen Wilhoite


◎标  签 悬疑 | 美国 | 宗教 | 惊悚 | 罗伯特·德尼罗 | RobertDeNiro | AlanParker | 恐怖

◎简  介  

  故事开始于1955年的纽约布鲁克林区,哈里·安格尔(米基·洛克 饰)是个胡子不剃、不停抽烟的私家侦探,专门调查离婚案。一天,一个自称叫路易斯·赛佛雷(罗伯特·德尼罗 饰)的神秘外国人找到了他,要他去寻找一个叫弗沃里特的歌唱家。这项任务钱很多,看起来也很轻松,哈里就接受了。 但是,哈里在调查中发现,自己所接触的每个与这件事情有关的人,都逐一被杀害:医生福勒、玛格丽特(夏洛特·兰普林 饰)、黑人音乐家图茨、伊桑。渐渐他发觉到事情的严重与神秘,自己也深陷其中,无法自拔。
本片改编自威廉·乔兹伯格的小说《堕落天使》。
Video
ID                                       : 1
Format                                   : AVC
Format/Info                              : Advanced Video Codec
Format settings, CABAC                   : Yes
Format settings, ReFrames                : 4 frames
Codec ID                                 : V_MPEG4/ISO/AVC
Duration                                 : 1 h 53 min
Bit rate                                 : 9 280 kb/s
Width                                    : 1 920 pixels
Height                                   : 1 040 pixels
Display aspect ratio                     : 1.85:1
Frame rate mode                          : Constant
Frame rate                               : 23.976 FPS
Color space                              : YUV
Chroma subsampling                       : 4:2:0
Bit depth                                : 8 bits
Scan type                                : Progressive
Bits/(Pixel*Frame)                       : 0.194
Stream size                              : 7.18 GiB (90%)
Writing library                          : x264 core 68 r1195 5d75a9b
Encoding settings                        : cabac=1 / ref=4 / deblock=1:0:0 / analyse=0x3:0x133 / me=umh / subme=7 / psy_rd=1.0:0.0 / mixed_ref=1 / me_range=16 / chroma_me=1 / trellis=1 / 8x8dct=1 / cqm=0 / deadzone=21,11 / chroma_qp_offset=-2 / threads=6 / nr=0 / decimate=1 / mbaff=0 / bframes=3 / b_pyramid=1 / b_adapt=1 / b_bias=0 / direct=1 / wpredb=1 / keyint=250 / keyint_min=25 / scenecut=40 / rc=2pass / bitrate=9280 / ratetol=1.0 / qcomp=0.60 / qpmin=10 / qpmax=51 / qpstep=4 / cplxblur=20.0 / qblur=0.5 / ip_ratio=1.40 / pb_ratio=1.30 / aq=1:1.00
Language                                 : English
Default                                  : Yes
Forced                                   : No

Audio
ID                                       : 2
Format                                   : DTS
Format/Info                              : Digital Theater Systems
Mode                                     : 16
Format settings, Endianness              : Big
Codec ID                                 : A_DTS
Duration                                 : 1 h 53 min
Bit rate mode                            : Constant
Bit rate                                 : 768 kb/s
Channel(s)                               : 6 channels
Channel positions                        : Front: L C R, Side: L R, LFE
Sampling rate                            : 48.0 kHz
Frame rate                               : 93.750 FPS (512 spf)
Bit depth                                : 24 bits
Compression mode                         : Lossy
Stream size                              : 622 MiB (8%)
Language                                 : English
Default                                  : Yes
Forced                                   : No

Text
ID                                       : 3
Format                                   : UTF-8
Codec ID                                 : S_TEXT/UTF8
Codec ID/Info                            : UTF-8 Plain Text
Language                                 : English
Default                                  : No
Forced                                   : No



                                                                                                                                                                                                        
                                                                                                                                                                                                                                                                                                                                                                                                                                                                                                                                                                                                                                                                                                                                                                                                                                                        
738cb7ddedb91530586910128de28345.torrent (79.98 KB)

回复

使用道具 举报

您需要登录后才可以回帖 登录 | 立即注册

本版积分规则

5n电影网  |网站地图

本网站所有资源来自网络,如无意中侵犯了您的权益,请发邮件至 [email protected],立即清除相关链接

GMT+8, 2019-6-17 23:38 , Processed in 0.070251 second(s), 31 queries .

Powered by Discuz! X3.2

© 2001-2013 Comsenz Inc.

快速回复 返回顶部 返回列表