请选择 进入手机版 | 继续访问电脑版

5n电影网

 找回密码
 立即注册

塞尔玛/塞尔玛游行 Selma.2014.1080p.BluRay.x264-SPARKS 9.84GB

[复制链接]
bt下载 发表于 2019-6-13 04:09:10 | 显示全部楼层 |阅读模式


帖子完整标题:塞尔玛/塞尔玛游行 Selma.2014.1080p.BluRay.x264-SPARKS 9.84GB




◎译  名 塞尔玛 / 塞尔玛游行 / 逐梦大道(台) / 马丁·路德·金-梦想之路(港)
◎片  名 Selma
◎年  代 2014
◎产  地 英国 / 美国
◎类  别 剧情 / 传记 / 历史
◎语  言 英语
◎上映日期 2014-12-25(美国)
◎IMDb评分  7.5/10 from 77636 users
◎片  长 128分钟
◎导  演 艾娃·德约列 Ava DuVernay
◎编  剧 保罗·韦布 Paul Webb
◎主  演 大卫·奥伊罗 David Oyelowo
      卡门·艾乔戈 Carmen Ejogo
      蒂姆·罗斯 Tim Roth
      汤姆·威尔金森 Tom Wilkinson
      乔瓦尼·瑞比西 Giovanni Ribisi
      亚历桑德罗·尼沃拉 Alessandro Nivola
      小库珀·古丁 Cuba Gooding Jr.
      奥普拉·温弗瑞 Oprah Winfrey
      科曼 Common
      迪伦·贝克 Dylan Baker
      凯斯·斯坦菲尔德 Keith Stanfield
      肯特·法尔考 Kent Faulcon
      科瑞·雷诺兹 Corey Reynolds
      泰莎·汤普森 Tessa Thompson


◎标  签 传记 | 美国 | 历史 | 2014 | 剧情 | 美国电影 | 英国 | 政治

◎简  介  

  历史传记题材电影《塞尔玛》由阿娃·杜威内执导,蒂姆·罗斯、大卫·奥伊罗、小库珀·古丁、汤姆·威尔金森主演,影片聚焦美国民权斗士马丁·路德·金1965年组织的“由塞尔玛向蒙哥马利进军”行动。

◎获奖情况  

  第87届奥斯卡金像奖(2015)
  最佳影片(提名) 迪·加德纳 / 克里斯蒂安·科尔森 / 奥普拉·温弗瑞 / 杰瑞米·克莱纳
  最佳原创歌曲 约翰·传奇 / 科曼

  第72届金球奖(2015)
  电影类 最佳剧情片(提名)
  电影类 最佳导演(提名) 艾娃·德约列
  电影类 剧情片最佳男主角(提名) 大卫·奥伊罗
  电影类 最佳原创歌曲

  第86届美国国家评论协会奖(2014)
  自由表达奖

  第30届美国独立精神奖(2015)
  最佳影片(提名)
  最佳导演(提名) 艾娃·德约列
  最佳男主角(提名) 大卫·奥伊罗
  最佳女配角(提名) 卡门·艾乔戈
  最佳摄影(提名) 布拉福德·杨

  第15届美国电影学会奖(2014)
  年度佳片

  第13届华盛顿影评人协会奖(2014)
  最佳影片(提名)
  最佳导演(提名) 艾娃·德约列
  最佳男主角(提名) 大卫·奥伊罗
  最佳群戏(提名) 奥普拉·温弗瑞 / 小库珀·古丁 / 史蒂芬·詹姆士 / 卡门·艾乔戈 / 大卫·奥伊罗 / 勒凯斯·斯坦菲尔德 / 科曼 / 洛莱妮·图桑特 / 汤姆·威尔金森 / 蒂姆·罗斯 / 安德烈·霍兰 / 维德尔·皮尔斯 / 迪伦·贝克 / 吉奥瓦尼·瑞比西 / 亚历桑德罗·尼沃拉
  华盛顿特区最佳写照(提名)

  第40届洛杉矶影评人协会奖(2014)
  新生代奖 艾娃·德约列

  第27届芝加哥影评人协会奖(2014)
  最佳男主角(提名) 大卫·奥伊罗

  第18届美国在线影评人协会奖(2014)
  最佳影片(提名)
  最佳导演(提名) 艾娃·德约列
  最佳原创剧本(提名) 保罗·韦布


Video
ID                                       : 1
Format                                   : AVC
Format/Info                              : Advanced Video Codec
Format profile                           : 1
Format settings, CABAC                   : Yes
Format settings, ReFrames                : 5 frames
Codec ID                                 : V_MPEG4/ISO/AVC
Duration                                 : 2 h 8 min
Bit rate                                 : 9 469 kb/s
Width                                    : 1 920 pixels
Height                                   : 800 pixels
Display aspect ratio                     : 2.40:1
Frame rate mode                          : Constant
Frame rate                               : 23.976 FPS
Color space                              : YUV
Chroma subsampling                       : 4:2:0
Bit depth                                : 8 bits
Scan type                                : Progressive
Bits/(Pixel*Frame)                       : 0.257
Stream size                              : 8.29 GiB (84%)
Writing library                          : x264 core 144 r2525 40bb568
Encoding settings                        : cabac=1 / ref=5 / deblock=1:0:0 / analyse=0x3:0x133 / me=umh / subme=7 / psy=1 / psy_rd=1.00:0.00 / mixed_ref=1 / me_range=16 / chroma_me=1 / trellis=1 / 8x8dct=1 / cqm=0 / deadzone=21,11 / fast_pskip=0 / chroma_qp_offset=-2 / threads=60 / lookahead_threads=6 / sliced_threads=0 / nr=0 / decimate=1 / interlaced=0 / bluray_compat=0 / constrained_intra=0 / bframes=3 / b_pyramid=2 / b_adapt=1 / b_bias=0 / direct=1 / weightb=1 / open_gop=0 / weightp=2 / keyint=250 / keyint_min=23 / scenecut=40 / intra_refresh=0 / rc_lookahead=40 / rc=2pass / mbtree=1 / bitrate=9469 / ratetol=1.0 / qcomp=0.60 / qpmin=0 / qpmax=69 / qpstep=4 / cplxblur=20.0 / qblur=0.5 / ip_ratio=1.40 / aq=1:1.00
Language                                 : English
Default                                  : Yes
Forced                                   : No

Audio
ID                                       : 2
Format                                   : DTS
Format/Info                              : Digital Theater Systems
Mode                                     : 16
Format settings, Endianness              : Big
Codec ID                                 : A_DTS
Duration                                 : 2 h 8 min
Bit rate mode                            : Constant
Bit rate                                 : 1 509 kb/s
Channel(s)                               : 6 channels
Channel positions                        : Front: L C R, Side: L R, LFE
Sampling rate                            : 48.0 kHz
Frame rate                               : 93.750 FPS (512 spf)
Bit depth                                : 24 bits
Compression mode                         : Lossy
Stream size                              : 1.35 GiB (14%)
Language                                 : English
Default                                  : Yes
Forced                                   : No

Menu
00:00:00.000                             : en:00:00:00.000
00:09:19.392                             : en:00:09:19.392
00:13:34.272                             : en:00:13:34.272
00:17:25.544                             : en:00:17:25.544
00:25:48.547                             : en:00:25:48.547
00:32:36.913                             : en:00:32:36.913
00:45:28.601                             : en:00:45:28.601
00:56:27.134                             : en:00:56:27.134
01:10:35.398                             : en:01:10:35.398
01:19:50.244                             : en:01:19:50.244
01:25:43.555                             : en:01:25:43.555
01:33:33.358                             : en:01:33:33.358
01:41:50.438                             : en:01:41:50.438
01:48:56.780                             : en:01:48:56.780
01:53:34.516                             : en:01:53:34.516
01:59:54.145                             : en:01:59:54.145



                                                                                                                                                                                                        
                                                                                                                                                                                                                                                                                                                                                                                                                                                                                                                                                                                                                                                                                                                                                                                                                                                        
36ffdf1a26d8fc04da8659c1672856bf.torrent (55.13 KB)

回复

使用道具 举报

您需要登录后才可以回帖 登录 | 立即注册

本版积分规则

5n电影网  |网站地图

本网站所有资源来自网络,如无意中侵犯了您的权益,请发邮件至 [email protected],立即清除相关链接

GMT+8, 2019-9-16 13:30 , Processed in 0.104144 second(s), 31 queries .

Powered by Discuz! X3.2

© 2001-2013 Comsenz Inc.

快速回复 返回顶部 返回列表