请选择 进入手机版 | 继续访问电脑版

5n电影网

 找回密码
 立即注册

88分钟/死亡倒数88分钟 88.Minutes.2007.DC.1080p.BluRay.x264.DTS-FGT 11...

[复制链接]
高清电影 发表于 2019-6-13 04:09:10 | 显示全部楼层 |阅读模式


帖子完整标题:88分钟/死亡倒数88分钟 88.Minutes.2007.DC.1080p.BluRay.x264.DTS-FGT 11.84GB




◎译  名 88分钟 / 死亡倒数88分钟
◎片  名 88 Minutes
◎年  代 2007
◎产  地 德国 / 美国 / 加拿大
◎类  别 剧情 / 悬疑 / 惊悚
◎语  言 英语
◎上映日期 2007-03-01(以色列) / 2007-04-13(罗马尼亚) / 2007-05-30(法国)
◎片  长 108分钟
◎导  演 乔恩·阿维奈 Jon Avnet
◎编  剧 Gary Scott Thompson
◎主  演 阿尔·帕西诺 Al Pacino
      特里尔比·格洛弗 Trilby Glover
      艾丽西亚·维特 Alicia Witt
      莉莉·索博斯基 Leelee Sobieski
      艾米·布伦尼曼 Amy Brenneman
      威廉·弗西斯 William Forsythe
      黛博拉·卡拉·安格 Deborah Kara Unger
      本杰明·麦肯锡 Ben McKenzie
      尼尔·麦克唐纳 Neal McDonough
      Leah Cairns
      史蒂芬·莫耶 Stephen Moyer
      Christopher Redman
      布莱登·佛雷切 Brendan Fletcher
      迈克尔·艾克朗德 Michael Eklund
      凯利·格泽尔 Carrie Genzel
      Kristina Copeland
      Tammy Hui
      Vicky Huang
      Victoria Tennant
      Michal Yannai
      保罗·坎贝尔 Paul Campbell


◎标  签 悬疑 | 犯罪 | 美国 | 阿尔·帕西诺 | Al·Pacino | 美国电影 | AlPacino | 剧情

◎简  介  

  一夜的纸醉金迷后美国联邦调查局的法庭精神分析师Jack Gramm博士(Al Pacino饰)被一宗谋杀案的电话带离了美人香,这宗谋杀案和9年前的西雅图杀手案极其相似。Jack当时的精神分析是判定嫌疑犯Foster有罪的关键依据。现在联邦调查局认为Foster是无辜的,而被害者在临死前的录象带也亲口证实Jack抓错了人。真正的罪犯也许正在逍遥法外。
当Jack正处于迷惑之时,他又收到了莫名的死亡威胁,得知自己只能再活88分钟。
面对种种突如其来的迷团以及死亡的威胁,Jack该如何应对……

◎获奖情况  

  第29届金酸莓奖(2009)
  最差男主角(提名) 阿尔·帕西诺
  最差女配角(提名) 莉莉·索博斯基


Video
ID                                       : 1
Format                                   : AVC
Format/Info                              : Advanced Video Codec
Format profile                           : [url=http://8BT天堂 www.btbt4.comm/cdn-cgi/l/email-protection][/url]
Format settings                          : CABAC / 4 Ref Frames
Format settings, CABAC                   : Yes
Format settings, ReFrames                : 4 frames
Codec ID                                 : V_MPEG4/ISO/AVC
Duration                                 : 1 h 47 min
Bit rate                                 : 13.9 Mb/s
Width                                    : 1 920 pixels
Height                                   : 816 pixels
Display aspect ratio                     : 2.35:1
Frame rate mode                          : Constant
Frame rate                               : 23.976 (24000/1001) FPS
Color space                              : YUV
Chroma subsampling                       : 4:2:0
Bit depth                                : 8 bits
Scan type                                : Progressive
Bits/(Pixel*Frame)                       : 0.371
Stream size                              : 10.5 GiB (88%)
Writing library                          : x264 core 146 r2538 121396c
Encoding settings                        : cabac=1 / ref=4 / deblock=1:-3:-3 / analyse=0x3:0x113 / me=umh / subme=10 / psy=1 / psy_rd=1.00:0.15 / mixed_ref=1 / me_range=32 / chroma_me=1 / trellis=2 / 8x8dct=1 / cqm=0 / deadzone=21,11 / fast_pskip=1 / chroma_qp_offset=-3 / threads=6 / lookahead_threads=1 / sliced_threads=0 / nr=0 / decimate=1 / interlaced=0 / bluray_compat=0 / constrained_intra=0 / bframes=10 / b_pyramid=2 / b_adapt=2 / b_bias=0 / direct=1 / weightb=1 / open_gop=0 / weightp=2 / keyint=230 / keyint_min=23 / scenecut=40 / intra_refresh=0 / rc_lookahead=40 / rc=crf / mbtree=0 / crf=20.0 / qcomp=0.60 / qpmin=0 / qpmax=69 / qpstep=4 / vbv_maxrate=40000 / vbv_bufsize=50000 / crf_max=0.0 / nal_hrd=none / filler=0 / ip_ratio=1.40 / pb_ratio=1.30 / aq=1:1.00
Language                                 : English
Default                                  : Yes
Forced                                   : No

Audio
ID                                       : 2
Format                                   : DTS
Format/Info                              : Digital Theater Systems
Codec ID                                 : A_DTS
Duration                                 : 1 h 47 min
Bit rate mode                            : Constant
Bit rate                                 : 1 509 kb/s
Channel(s)                               : 6 channels
Channel layout                           : C L R Ls Rs LFE
Sampling rate                            : 48.0 kHz
Frame rate                               : 93.750 FPS (512 SPF)
Bit depth                                : 24 bits
Compression mode                         : Lossy
Stream size                              : 1.13 GiB (10%)
Language                                 : English
Default                                  : Yes
Forced                                   : No

Text
ID                                       : 3
Format                                   : UTF-8
Codec ID                                 : S_TEXT/UTF8
Codec ID/Info                            : UTF-8 Plain Text
Language                                 : English
Default                                  : Yes
Forced                                   : No



                                                                                                                                                                                                        
                                                                                                                                                                                                                                                                                                                                                                                                                                                                                                                                                                                                                                                                                                                                                                                                                                                        
7894d67978d8a1da6f5587e0ae397049.torrent (59.73 KB)

回复

使用道具 举报

您需要登录后才可以回帖 登录 | 立即注册

本版积分规则

5n电影网  |网站地图

本网站所有资源来自网络,如无意中侵犯了您的权益,请发邮件至 [email protected],立即清除相关链接

GMT+8, 2019-6-26 00:25 , Processed in 0.093712 second(s), 31 queries .

Powered by Discuz! X3.2

© 2001-2013 Comsenz Inc.

快速回复 返回顶部 返回列表