请选择 进入手机版 | 继续访问电脑版

5n电影网

 找回密码
 立即注册

矮子当道/关人矮事 Get.Shorty.1995.1080p.BluRay.x264-Japhson 7.64GB

[复制链接]
电影首发 发表于 2019-6-13 04:09:10 | 显示全部楼层 |阅读模式


帖子完整标题:矮子当道/关人矮事 Get.Shorty.1995.1080p.BluRay.x264-Japhson 7.64GB




◎译  名 矮子当道 / 关人矮事 / 闲人矮话 / 黑道当家
◎片  名 Get Shorty
◎年  代 1995
◎产  地 美国
◎类  别 喜剧 / 惊悚 / 犯罪
◎语  言 英语
◎上映日期 1995-10-20(美国)
◎片  长 105分钟
◎导  演 巴里·索南菲尔德 Barry Sonnenfeld
◎编  剧 埃尔莫·伦纳德 Elmore Leonard / 斯科特·弗兰克 Scott Frank
◎主  演 约翰·特拉沃尔塔 John Travolta
      吉恩·哈克曼 Gene Hackman
      蕾妮·罗素 Rene Russo
      丹尼·德维托 Danny DeVito
      丹尼斯·法里纳 Dennis Farina
      戴尔里·林多 Delroy Lindo
      詹姆斯·甘多菲尼 James Gandolfini
      强·格瑞斯 Jon Gries
      Renee Props
      大卫·佩默 David Paymer
      马丁·费雷罗 Martin Ferrero
      米盖尔·桑多瓦尔 Miguel Sandoval


◎标  签 黑色幽默 | 美国 | 喜剧 | JohnTravolta | 黑帮 | 犯罪 | 美国电影 | 1995

◎简  介  

  奇利(约翰·特拉沃塔 John Travolta 饰)是一名经验丰富的追债人,这一次,他奉老板雷(丹尼斯·法里纳 Dennis Farina 饰)之命,前往好莱坞寻找一个名叫哈里(吉恩·哈克曼 Gene Hackman 饰)的电影人。没想到,奇利是个超级影迷,在见到了哈里之后,奇利突发奇想,决定和哈里合作,拍摄一部名为《拉夫乔伊先生》的电影。
卡伦(蕾妮·罗素 Rene Russo 饰)和马丁(丹尼·德维托 Danny DeVito 饰)加入了奇利的拍摄计划之中,就连哈里的债主卡特里特(戴尔里·林多 Delroy Lindo 饰)也对这部影片产生了兴趣。然而,卡特里特心里亦有着他的打算,他决定让哈里和奇利帮助他取回丢在机场的巨额赃款。奇利的不受控制惹恼了身为老板的雷,他也来到了好莱坞,一场混战即将爆发。

◎获奖情况  

  第46届柏林国际电影节(1996)
  金熊奖 最佳影片(提名) 巴里·索南菲尔德


Video
ID                                       : 1
Format                                   : AVC
Format/Info                              : Advanced Video Codec
Format settings                          : CABAC / 4 Ref Frames
Format settings, CABAC                   : Yes
Format settings, ReFrames                : 4 frames
Codec ID                                 : V_MPEG4/ISO/AVC
Duration                                 : 1 h 44 min
Bit rate                                 : 8 918 kb/s
Width                                    : 1 920 pixels
Height                                   : 1 040 pixels
Display aspect ratio                     : 1.85:1
Frame rate mode                          : Constant
Frame rate                               : 23.976 (24000/1001) FPS
Color space                              : YUV
Chroma subsampling                       : 4:2:0
Bit depth                                : 8 bits
Scan type                                : Progressive
Bits/(Pixel*Frame)                       : 0.186
Stream size                              : 6.38 GiB (84%)
Writing library                          : x264 core 115 r1947 b5a8ad7
Encoding settings                        : cabac=1 / ref=4 / deblock=1:-1:-1 / analyse=0x3:0x113 / me=umh / subme=7 / psy=1 / psy_rd=1.00:0.00 / mixed_ref=1 / me_range=16 / chroma_me=1 / trellis=1 / 8x8dct=1 / cqm=0 / deadzone=21,11 / fast_pskip=1 / chroma_qp_offset=-2 / threads=12 / sliced_threads=0 / nr=0 / decimate=1 / interlaced=0 / bluray_compat=0 / constrained_intra=0 / bframes=3 / b_pyramid=2 / b_adapt=2 / b_bias=0 / direct=3 / weightb=1 / open_gop=0 / weightp=2 / keyint=250 / keyint_min=23 / scenecut=40 / intra_refresh=0 / rc_lookahead=40 / rc=2pass / mbtree=1 / bitrate=8918 / ratetol=1.0 / qcomp=0.60 / qpmin=0 / qpmax=69 / qpstep=4 / cplxblur=20.0 / qblur=0.5 / vbv_maxrate=50000 / vbv_bufsize=50000 / nal_hrd=none / ip_ratio=1.40 / aq=1:1.00
Language                                 : English
Default                                  : Yes
Forced                                   : Yes

Audio
ID                                       : 2
Format                                   : DTS
Format/Info                              : Digital Theater Systems
Codec ID                                 : A_DTS
Duration                                 : 1 h 44 min
Bit rate mode                            : Constant
Bit rate                                 : 1 509 kb/s
Channel(s)                               : 6 channels
Channel layout                           : C L R Ls Rs LFE
Sampling rate                            : 48.0 kHz
Frame rate                               : 93.750 FPS (512 SPF)
Bit depth                                : 24 bits
Compression mode                         : Lossy
Stream size                              : 1.11 GiB (14%)
Language                                 : English
Default                                  : Yes
Forced                                   : Yes



                                                                                                                                                                                                        
                                                                                                                                                                                                                                                                                                                                                                                                                                                                                                                                                                                                                                                                                                                                                                                                                                                        
56c2294b0945909905c1fce5b2a76813.torrent (42.74 KB)

回复

使用道具 举报

您需要登录后才可以回帖 登录 | 立即注册

本版积分规则

5n电影网  |网站地图

本网站所有资源来自网络,如无意中侵犯了您的权益,请发邮件至 [email protected],立即清除相关链接

GMT+8, 2019-9-21 16:01 , Processed in 0.088195 second(s), 31 queries .

Powered by Discuz! X3.2

© 2001-2013 Comsenz Inc.

快速回复 返回顶部 返回列表