请选择 进入手机版 | 继续访问电脑版

5n电影网

 找回密码
 立即注册

冰球坏小子/冰场打架王 Goon.2011.LIMITED.1080p.BluRay.x264-MaxHD 6.56GB

[复制链接]
电影首发 发表于 2019-6-13 04:09:10 | 显示全部楼层 |阅读模式
冰球坏小子/冰场打架王 Goon.2011.LIMITED.1080p.BluRay.x264-MaxHD 6.56GB




◎译  名 冰球坏小子 / 冰场打架王 / 呆子
◎片  名 Goon
◎年  代 2011
◎产  地 美国 / 加拿大
◎类  别 喜剧 / 运动
◎语  言 英语
◎上映日期 2011-09-10(多伦多电影节)
◎片  长 92分钟
◎导  演 Michael Dowse
◎编  剧 杰伊·巴鲁切尔 Jay Baruchel / 埃文·戈德堡 Evan Goldberg
◎主  演 西恩·威廉·斯科特 Seann William Scott
      杰伊·巴鲁切尔 Jay Baruchel
      马克-安德烈·格隆丁 Marc-André Grondin
      金·寇兹 Kim Coates
      艾丽森·皮尔 Alison Pill
      列维·施瑞博尔 Liev Schreiber
      Ricky Mabe


◎标  签 体育 | 美国 | 喜剧 | 励志 | 暴力 | 冰球 | 加拿大 | 2011

◎简  介  

  酒吧保安道格·格拉特(西恩·威廉·斯科特 Seann William Scott 饰)体格强壮,行事略有呆气,在一次观看冰球比赛时将不满观众嘘声的球员痛揍,他的壮举经好友拍摄公布后引起大众注意,阴差阳错加入当地一支冰球队从头学起,充当队中暴徒角色。一场场血战为道格赢来了知名度,在教练的请托和引荐下,道格进入职业小联盟的刺客队,刺客队中有因为受伤而产生心理阴影的昔日王牌球员泽维尔,而道格的任务,即是保证泽维尔等队友在场上的安全。道格在比赛之外结识了热爱冰球的姑娘伊娃(艾丽森·皮尔 Alison Pill 饰),他向姑娘笨拙的表达着自己的爱慕。另一方面,王牌冰场打手罗斯在前方等待着道格的挑战……
Video
ID                                       : 1
Format                                   : AVC
Format/Info                              : Advanced Video Codec
Format profile                     
Format settings                          : CABAC / 4 Ref Frames
Format settings, CABAC                   : Yes
Format settings, ReFrames                : 4 frames
Codec ID                                 : V_MPEG4/ISO/AVC
Duration                                 : 1 h 31 min
Bit rate                                 : 8 729 kb/s
Width                                    : 1 920 pixels
Height                                   : 1 080 pixels
Display aspect ratio                     : 16:9
Frame rate mode                          : Constant
Frame rate                               : 23.976 (24000/1001) FPS
Color space                              : YUV
Chroma subsampling                       : 4:2:0
Bit depth                                : 8 bits
Scan type                                : Progressive
Bits/(Pixel*Frame)                       : 0.176
Stream size                              : 5.46 GiB (83%)
Writing library                          : x264 core 122 r2184 5c85e0a
Encoding settings                        : cabac=1 / ref=4 / deblock=1:0:0 / analyse=0x3:0x113 / me=umh / subme=8 / psy=1 / psy_rd=1.00:0.00 / mixed_ref=1 / me_range=16 / chroma_me=1 / trellis=1 / 8x8dct=1 / cqm=0 / deadzone=21,11 / fast_pskip=1 / chroma_qp_offset=-2 / threads=12 / sliced_threads=0 / nr=0 / decimate=1 / interlaced=0 / bluray_compat=0 / constrained_intra=0 / bframes=3 / b_pyramid=2 / b_adapt=2 / b_bias=0 / direct=3 / weightb=1 / open_gop=0 / weightp=2 / keyint=240 / keyint_min=24 / scenecut=40 / intra_refresh=0 / rc_lookahead=50 / rc=2pass / mbtree=1 / bitrate=8729 / ratetol=1.0 / qcomp=0.60 / qpmin=0 / qpmax=69 / qpstep=4 / cplxblur=20.0 / qblur=0.5 / ip_ratio=1.40 / aq=1:1.00
Language                                 : English
Default                                  : Yes
Forced                                   : No

Audio
ID                                       : 2
Format                                   : DTS
Format/Info                              : Digital Theater Systems
Codec ID                                 : A_DTS
Duration                                 : 1 h 31 min
Bit rate mode                            : Constant
Bit rate                                 : 1 509 kb/s
Channel(s)                               : 6 channels
Channel layout                           : C L R Ls Rs LFE
Sampling rate                            : 48.0 kHz
Frame rate                               : 93.750 FPS (512 SPF)
Bit depth                                : 24 bits
Compression mode                         : Lossy
Stream size                              : 989 MiB (15%)
Title                                    : English DTS 1536Kbps
Language                                 : English
Default                                  : Yes
Forced                                   : No

Text
ID                                       : 3
Format                                   : UTF-8
Codec ID                                 : S_TEXT/UTF8
Codec ID/Info                            : UTF-8 Plain Text
Title                                    : English
Language                                 : English
Default                                  : No
Forced                                   : No

Menu
00:00:00.000                             : en:00:00:00.000
00:06:56.625                             : en:00:06:56.625
00:15:46.529                             : en:00:15:46.529
00:22:25.970                             : en:00:22:25.970
00:29:19.508                             : en:00:29:19.508
00:37:32.750                             : en:00:37:32.750
00:44:20.908                             : en:00:44:20.908
00:56:03.235                             : en:00:56:03.235
01:03:24.718                             : en:01:03:24.718
01:11:15.480                             : en:01:11:15.480
01:19:09.912                             : en:01:19:09.912
01:24:46.248                             : en:01:24:46.248



                                                                                                                                                                                                        
                                                                                                                                                                                                                                                                                                                                                                                                                                                                                                                                                                                                                                                                                                                                                                                                                                                        
8293cbd3b118efd6c3a890526c002e8d.torrent (17.17 KB)

回复

使用道具 举报

您需要登录后才可以回帖 登录 | 立即注册

本版积分规则

5n电影网  |网站地图

本网站所有资源来自网络,如无意中侵犯了您的权益,请发邮件至 [email protected],立即清除相关链接

GMT+8, 2019-9-21 15:25 , Processed in 0.079811 second(s), 31 queries .

Powered by Discuz! X3.2

© 2001-2013 Comsenz Inc.

快速回复 返回顶部 返回列表