请选择 进入手机版 | 继续访问电脑版

5n电影网

 找回密码
 立即注册

老大靠边闪2/老大靠边闪2:歪打正著 Analyze.That.2002.1080p.BluRay...

[复制链接]
电影bt 发表于 2019-6-13 04:09:10 | 显示全部楼层 |阅读模式


帖子完整标题:老大靠边闪2/老大靠边闪2:歪打正著 Analyze.That.2002.1080p.BluRay.x264.DTS-FGT 7.95GB




◎译  名 老大靠边闪2 / 老大靠边闪2:歪打正著
◎片  名 Analyze That
◎年  代 2002
◎产  地 美国 / 澳大利亚
◎类  别 喜剧 / 犯罪
◎语  言 英语
◎上映日期 2002-12-06
◎IMDb评分  5.9/10 from 78011 users
◎片  长 96 分钟
◎导  演 Harold Ramis
◎编  剧 Peter Steinfeld / Harold Ramis
◎主  演 Robert De Niro
      Billy Crystal


◎标  签 喜剧 | 美国 | 黑帮 | 罗伯特·德尼罗 | RobertDeNiro | 美国电影 | 2002 | 心理

◎简  介  

  电影介绍     1999年的《老大靠边闪》(“Analyze This”)曾在票房榜上创造了奇迹,取得了1亿70万美元的票房佳绩。本片故事延续上一集。老大保罗-维蒂(Paul Vitti,罗伯特-德-尼罗饰,Robert De Niro)在纽约辛辛监狱的刑期就要期满了。但负责监视他的联邦调查局特工却倍感困惑,最近他们看管的这个纽约最臭名昭著的黑帮老大,在他关押的小屋里日复一日、神经般地踱来踱去,当然偶尔也会唱几句影片《西区故事》(“West Side Story”)中的主题曲。
维蒂是因为他的对头家族又向他发出死亡威胁而精神崩溃?还是想以他这种古怪的举止而早日离开监狱?联邦特工被弄得是一头雾水,维蒂以前的心理医生本-索贝尔(Ben Sobel,比利-克里斯特尔饰,Billy Crystal)也被召来,检查后也不明所以。
上一次,索贝尔给维蒂治疗时就曾想设法找出他日益焦虑的原因,但是毫无结果。要想找出维蒂脑海里潜伏着的病魔,让他恢复正常,这需要时间。而此时此刻,索贝尔并不想浪费时间,特别是对于维蒂,尤其是现在。
事实上,索贝尔自己也遇到了麻烦。他的父亲刚去世不久,使他陷入了个人生活和职业生涯的个性转变期。此外,索贝尔知道如果他让那个令人捉摸不透的维蒂再次出现在自己生活中的话,他的妻子劳拉-麦克纳马拉-索贝尔(Laura MacNamara Sobol,莉萨-库德劳饰,Lisa Kudrow)一定会火冒三丈。
但是,维蒂获得了假释,并且是在索贝尔的担保下,再次成了他的病人--更糟的是成为了他们家的房客,这个心不甘情不愿的心理医生发现他根本没有选择。为了使他的生活恢复以往的平静,索贝尔必须帮助这个黑帮老大恢复心智,找到一份合适的工作,回到正道上来。
终于,维蒂似乎开始认真对待治疗了。索贝尔也认为自己开始相信维蒂了。但是如果象卢-伦奇(Lou The Wrench)这样的家伙不断出现的话,他还能保持这份毅力吗?
Video
ID                                       : 1
Format                                   : AVC
Format/Info                              : Advanced Video Codec

Format settings                          : CABAC / 4 Ref Frames
Format settings, CABAC                   : Yes
Format settings, ReFrames                : 4 frames
Codec ID                                 : V_MPEG4/ISO/AVC
Duration                                 : 1 h 35 min
Bit rate                                 : 10.4 Mb/s
Width                                    : 1 920 pixels
Height                                   : 1 080 pixels
Display aspect ratio                     : 16:9
Frame rate mode                          : Constant
Frame rate                               : 23.976 FPS
Color space                              : YUV
Chroma subsampling                       : 4:2:0
Bit depth                                : 8 bits
Scan type                                : Progressive
Bits/(Pixel*Frame)                       : 0.209
Stream size                              : 6.78 GiB (85%)
Writing library                          : x264 core 84 r1416 fcf70c2
Encoding settings                        : cabac=1 / ref=4 / deblock=1:0:0 / analyse=0x3:0x113 / me=umh / subme=9 / psy=1 / psy_rd=1.1:0.0 / mixed_ref=1 / me_range=16 / chroma_me=1 / trellis=1 / 8x8dct=1 / cqm=0 / deadzone=21,11 / fast_pskip=0 / chroma_qp_offset=-2 / threads=6 / sliced_threads=0 / nr=0 / decimate=1 / mbaff=0 / constrained_intra=0 / bframes=3 / b_pyramid=0 / b_adapt=2 / b_bias=0 / direct=3 / wpredb=1 / wpredp=2 / keyint=250 / keyint_min=25 / scenecut=40 / intra_refresh=0 / rc_lookahead=30 / rc=2pass / mbtree=1 / bitrate=10367 / ratetol=1.0 / qcomp=0.60 / qpmin=10 / qpmax=51 / qpstep=4 / cplxblur=20.0 / qblur=0.5 / ip_ratio=1.40 / aq=1:1.10
Language                                 : English
Default                                  : Yes
Forced                                   : No

Audio
ID                                       : 2
Format                                   : DTS
Format/Info                              : Digital Theater Systems
Codec ID                                 : A_DTS
Duration                                 : 1 h 35 min
Bit rate mode                            : Constant
Bit rate                                 : 1 509 kb/s
Channel(s)                               : 6 channels
Channel layout                           : C L R Ls Rs LFE
Sampling rate                            : 48.0 kHz
Frame rate                               : 93.750 FPS (512 SPF)
Bit depth                                : 16 bits
Compression mode                         : Lossy
Stream size                              : 1.01 GiB (13%)
Language                                 : English
Default                                  : Yes
Forced                                   : No

Text
ID                                       : 3
Format                                   : UTF-8
Codec ID                                 : S_TEXT/UTF8
Codec ID/Info                            : UTF-8 Plain Text
Language                                 : English
Default                                  : No
Forced                                   : No



                                                                                                                                                                                                        
                                                                                                                                                                                                                                                                                                                                                                                                                                                                                                                                                                                                                                                                                                                                                                                                                                                        
88af00c93b3166bf754e16031eff1da5.torrent (56.73 KB)

回复

使用道具 举报

您需要登录后才可以回帖 登录 | 立即注册

本版积分规则

5n电影网  |网站地图

本网站所有资源来自网络,如无意中侵犯了您的权益,请发邮件至 [email protected],立即清除相关链接

GMT+8, 2019-6-26 00:26 , Processed in 0.070709 second(s), 31 queries .

Powered by Discuz! X3.2

© 2001-2013 Comsenz Inc.

快速回复 返回顶部 返回列表