请选择 进入手机版 | 继续访问电脑版

5n电影网

 找回密码
 立即注册

尸骨无存2 Cabin.Fever.Spring.Fever.2009.1080p.BluRay.x264-THUGLiNE 6.56GB

[复制链接]
bt电影 发表于 2019-6-13 04:09:10 | 显示全部楼层 |阅读模式


帖子完整标题:尸骨无存2 Cabin.Fever.Spring.Fever.2009.1080p.BluRay.x264-THUGLiNE 6.56GB




◎译  名 尸骨无存2
◎片  名 Cabin Fever 2: Spring Fever
◎年  代 2009
◎产  地 美国
◎类  别 惊悚 / 恐怖
◎语  言 英语
◎上映日期 2009
◎片  长 86 分钟
◎导  演 缇·威斯特 Ti West
◎编  剧 Joshua Malkin / Randy Pearlstein
◎主  演 莱德尔·斯特朗 Rider Strong
      诺阿·西甘 Noah Segan
      亚历山大·伊塞亚·托马斯 Alexander Isaiah Thomas


◎标  签 血腥 | 恐怖 | 美国 | 惊悚 | B级片 | 美国电影 | 恐怖电影 | 2009

◎简  介  

  第一集的病毒再次袭来!自从他的朋友遭殃之后,保罗这次能否逃过劫难呢?
这一次恐怖事件的场景被设在了高中,一种极具腐蚀性的污染水源被装瓶送入校园,出现在高中返校舞会上,毫不知情的学生们在饮水后,开始吐血、腐烂、最终死亡。
Video
ID                                       : 1
Format                                   : AVC
Format/Info                              : Advanced Video Codec
Format settings, CABAC                   : Yes
Format settings, ReFrames                : 5 frames
Codec ID                                 : V_MPEG4/ISO/AVC
Duration                                 : 1 h 26 min
Bit rate                                 : 9 407 kb/s
Width                                    : 1 920 pixels
Height                                   : 816 pixels
Display aspect ratio                     : 2.35:1
Frame rate mode                          : Constant
Frame rate                               : 24.000 FPS
Color space                              : YUV
Chroma subsampling                       : 4:2:0
Bit depth                                : 8 bits
Scan type                                : Progressive
Bits/(Pixel*Frame)                       : 0.250
Stream size                              : 5.52 GiB (84%)
Writing library                          : x264 core 88 r1471 1144615
Encoding settings                        : cabac=1 / ref=5 / deblock=1:0:0 / analyse=0x3:0x133 / me=umh / subme=9 / psy=1 / psy_rd=1.00:0.00 / mixed_ref=1 / me_range=16 / chroma_me=1 / trellis=1 / 8x8dct=1 / cqm=0 / deadzone=21,11 / fast_pskip=0 / chroma_qp_offset=-2 / threads=12 / sliced_threads=0 / nr=0 / decimate=1 / mbaff=0 / constrained_intra=0 / bframes=3 / b_pyramid=2 / b_adapt=1 / b_bias=0 / direct=1 / wpredb=1 / wpredp=2 / keyint=250 / keyint_min=25 / scenecut=40 / intra_refresh=0 / rc_lookahead=40 / rc=2pass / mbtree=1 / bitrate=9407 / ratetol=1.0 / qcomp=0.60 / qpmin=10 / qpmax=51 / qpstep=4 / cplxblur=20.0 / qblur=0.5 / ip_ratio=1.40 / aq=1:1.00
Language                                 : English
Default                                  : No
Forced                                   : No

Audio
ID                                       : 2
Format                                   : DTS
Format/Info                              : Digital Theater Systems
Mode                                     : 16
Format settings, Endianness              : Big
Codec ID                                 : A_DTS
Duration                                 : 1 h 26 min
Bit rate mode                            : Constant
Bit rate                                 : 1 509 kb/s
Channel(s)                               : 6 channels
Channel positions                        : Front: L C R, Side: L R, LFE
Sampling rate                            : 48.0 kHz
Frame rate                               : 93.750 FPS (512 spf)
Bit depth                                : 16 bits
Compression mode                         : Lossy
Stream size                              : 929 MiB (14%)
Default                                  : Yes
Forced                                   : No



                                                                                                                                                                                                        
                                                                                                                                                                                                                                                                                                                                                                                                                                                                                                                                                                                                                                                                                                                                                                                                                                                        
7d89cd5ba0a701de8d701df0087f2cc8.torrent (66.21 KB)

回复

使用道具 举报

您需要登录后才可以回帖 登录 | 立即注册

本版积分规则

5n电影网  |网站地图

本网站所有资源来自网络,如无意中侵犯了您的权益,请发邮件至 [email protected],立即清除相关链接

GMT+8, 2019-8-26 00:08 , Processed in 0.095755 second(s), 31 queries .

Powered by Discuz! X3.2

© 2001-2013 Comsenz Inc.

快速回复 返回顶部 返回列表