请选择 进入手机版 | 继续访问电脑版

5n电影网

 找回密码
 立即注册

火线特攻/世纪交锋 Righteous.Kill.2008.1080p.BluRay.x264.DTS-FGT 12.83GB

[复制链接]
高清电影 发表于 2019-6-13 04:09:10 | 显示全部楼层 |阅读模式


帖子完整标题:火线特攻/世纪交锋 Righteous.Kill.2008.1080p.BluRay.x264.DTS-FGT 12.83GB




◎译  名 火线特攻 / 世纪交锋(台) / 正义杀戮 / 正当杀人 / 火线特工
◎片  名 Righteous Kill
◎年  代 2008
◎产  地 美国
◎类  别 剧情 / 悬疑 / 犯罪
◎语  言 英语 / 西班牙语
◎上映日期 2008-09-12(美国) / 2010-11-30(中国大陆)
◎片  长 101分钟
◎导  演 乔恩·阿维奈 Jon Avnet
◎编  剧 罗赛·格维茨 Russell Gewirtz
◎主  演 罗伯特·德尼罗 Robert De Niro
      阿尔·帕西诺 Al Pacino
      50分 50 Cent
      卡拉·古奇诺 Carla Gugino
      约翰·雷吉扎莫 John Leguizamo
      唐尼·沃尔伯格 Donnie Wahlberg
      布莱恩·丹内利 Brian Dennehy
      特里尔比·格洛弗 Trilby Glover


◎标  签 犯罪 | AlPacino | 美国 | RobertDeNiro | 阿尔·帕西诺 | 罗伯特·德尼罗 | 悬疑 | 美国电影

◎简  介  

  纽约两位资深警探特克(罗伯特?德?尼罗饰)和罗斯特(阿尔?帕西诺饰)是一对亲密无间的老搭档,二人合计已在警署工作100年。特克脾气火爆,而罗斯特处事圆滑。最近,纽约出现了一位连环凶手,特克与罗斯特二人负责调查此案。在调查过程中,他们发现凶手有特殊的习惯与高超的射击水平,而更奇怪的是,被害人都与特克有千丝万缕的联系。天使般代表正义的警察,与恶魔般代表罪恶的犯罪者。谁才是真正的特克?一段段迷雾拨开,惊人的真相在内心的黑暗处等待。

◎获奖情况  

  第29届金酸莓奖(2009)
  最差男主角(提名) 阿尔·帕西诺


Video
ID                                       : 1
Format                                   : AVC
Format/Info                              : Advanced Video Codec

Format settings, CABAC                   : Yes
Format settings, ReFrames                : 5 frames
Codec ID                                 : V_MPEG4/ISO/AVC
Duration                                 : 1h 40mn
Bit rate                                 : 16.3 Mbps
Width                                    : 1 920 pixels
Height                                   : 816 pixels
Display aspect ratio                     : 2.35:1
Frame rate mode                          : Constant
Frame rate                               : 23.976 fps
Color space                              : YUV
Chroma subsampling                       : 4:2:0
Bit depth                                : 8 bits
Scan type                                : Progressive
Bits/(Pixel*Frame)                       : 0.435
Stream size                              : 11.5 GiB (90%)

Encoding settings                        : cabac=1 / ref=5 / deblock=1:-2:-2 / analyse=0x3:0x133 / me=umh / subme=11 / psy=1 / fade_compensate=0.00 / psy_rd=1.00:0.00 / mixed_ref=1 / me_range=32 / chroma_me=1 / trellis=2 / 8x8dct=1 / cqm=0 / deadzone=21,11 / fast_pskip=1 / chroma_qp_offset=-2 / threads=12 / lookahead_threads=2 / sliced_threads=0 / nr=0 / decimate=1 / interlaced=0 / bluray_compat=0 / constrained_intra=0 / fgo=0 / bframes=9 / b_pyramid=2 / b_adapt=2 / b_bias=0 / direct=1 / weightb=1 / open_gop=0 / weightp=2 / keyint=250 / keyint_min=23 / scenecut=40 / intra_refresh=0 / rc_lookahead=60 / rc=crf / mbtree=0 / crf=19.0000 / qcomp=0.70 / qpmin=0:0:0 / qpmax=69:69:69 / qpstep=4 / vbv_maxrate=62500 / vbv_bufsize=78125 / crf_max=0.0 / nal_hrd=none / filler=0 / ip_ratio=1.40 / pb_ratio=1.30 / aq=4:0.70 / aq-sensitivity=11.00 / aq-factor=1.00:1.00:1.00 / aq2=1:0.60 / aq2-sensitivity=9.00 / aq2-factor=1.00:1.00:1.00 / aq3=1:[0.60:0.60]:[0.60:0.60]:[0.60:0.60]:[0.60:0.60] / aq3-sensitivity=10.00 / aq3-factor=[1.00:1.00]:[1.00:1.00]:[1.00:1.00] / aq3-boundary=192:64:24
Language                                 : English
Default                                  : Yes
Forced                                   : No
Color range                              : Limited
Color primaries                          : BT.709
Transfer characteristics                 : BT.709
Matrix coefficients                      : BT.709

Audio
ID                                       : 2
Format                                   : DTS
Format/Info                              : Digital Theater Systems
Mode                                     : 16
Format settings, Endianness              : Big
Codec ID                                 : A_DTS
Duration                                 : 1h 40mn
Bit rate mode                            : Constant
Bit rate                                 : 1 509 Kbps
Channel(s)                               : 6 channels
Channel positions                        : Front: L C R, Side: L R, LFE
Sampling rate                            : 48.0 KHz
Bit depth                                : 24 bits
Compression mode                         : Lossy
Stream size                              : 1.06 GiB (8%)
Language                                 : English
Default                                  : Yes
Forced                                   : No

Text
ID                                       : 3
Format                                   : UTF-8
Codec ID                                 : S_TEXT/UTF8
Codec ID/Info                            : UTF-8 Plain Text
Language                                 : English
Default                                  : No
Forced                                   : No

Menu
00:00:00.000                             : en:Main Titles
00:03:26.664                             : en:Unacceptable Acquittal
00:10:06.606                             : en:Club 404 of Harlem
00:13:53.833                             : en:Skateboard Pimp
00:22:17.586                             : en:Not Your Average Rat
00:26:28.211                             : en:\"Everybody Respects the Gun\"
00:29:52.415                             : en:The Infield Fly Rule
00:34:42.497                             : en:In Cold Blood
00:39:51.430                             : ensychology of the Shield
00:45:14.712                             : en:Martin Baum
00:48:22.858                             : en:So Many Altar Boys
00:55:15.228                             : en:The One Percent
00:59:41.703                             : en:\"Who I Was and Where I Stood\"
01:05:12.491                             : en:Suspicions
01:08:48.541                             : en:Yevgeny Mugalat
01:14:00.269                             : en:The Unforgivable
01:20:01.129                             : en:Searching for Answers
01:26:57.170                             : en:A Loss of Faith
01:34:06.182                             : en:A Brother in Arms
01:36:00.129                             : en:End Credits



                                                                                                                                                                                                        
                                                                                                                                                                                                                                                                                                                                                                                                                                                                                                                                                                                                                                                                                                                                                                                                                                                        
8462e4dab9158bcb64dc700ceef04e86.torrent (76.97 KB)

回复

使用道具 举报

您需要登录后才可以回帖 登录 | 立即注册

本版积分规则

5n电影网  |网站地图

本网站所有资源来自网络,如无意中侵犯了您的权益,请发邮件至 [email protected],立即清除相关链接

GMT+8, 2019-6-26 01:20 , Processed in 0.070818 second(s), 31 queries .

Powered by Discuz! X3.2

© 2001-2013 Comsenz Inc.

快速回复 返回顶部 返回列表