请选择 进入手机版 | 继续访问电脑版

5n电影网

 找回密码
 立即注册

毁灭者科南/毁灭者柯南 Conan.The.Destroyer.1984.1080p.BluRay.x264-Ja...

[复制链接]
电影首发 发表于 2019-6-13 04:09:10 | 显示全部楼层 |阅读模式


帖子完整标题:毁灭者科南/毁灭者柯南 Conan.The.Destroyer.1984.1080p.BluRay.x264-Japhson 7.64GB




◎译  名 毁灭者科南 / 毁灭者柯南
◎片  名 Conan the Destroyer
◎年  代 1984
◎产  地 美国
◎类  别 动作 / 奇幻 / 冒险
◎语  言 英语
◎上映日期 1984-06-29
◎IMDb评分  5.9/10 from 71409 users
◎片  长 103 分钟
◎导  演 理查德·弗莱彻 Richard Fleischer
◎编  剧 罗伯特·霍华德 Robert E. Howard / 罗伊·托马斯 Roy Thomas
◎主  演 阿诺·施瓦辛格 Arnold Schwarzenegger
      葛蕾丝·琼斯 Grace Jones
      威尔特·张伯伦 Wilt Chamberlain
      岩松信 Mako
      崔西·沃特 Tracey Walter
      莎拉·道格拉斯 Sarah Douglas
      奥利薇亚·阿波 Olivia d'Abo
      帕特·罗奇 Pat Roach
      杰夫·科里 Jeff Corey
      史文-欧尔·托尔森 Sven-Ole Thorsen
      Bruce Fleischer
      费迪·梅恩 Ferdy Mayne


◎标  签 美国 | 动作 | 奇幻 | 施瓦辛格 | 魔幻 | 1984 | 美国电影 | Arnold.Schwarzenegger

◎简  介  

  在传说中英雄辈出的年代,彪悍的西米里族英雄柯南(阿诺德·施瓦辛格 Arnold Schwarzenegger 饰)为了让心爱的瓦莱里亚复活,只得接受了异族女王塔拉米斯的要求,陪伴女王的侄女珍娜取得魔法钥匙“邪恶之心”。珍娜是远古卷轴上记载的天选之人,只有她才能得到钥匙,开启传说中的宝藏,而塔拉米斯的计划是利用柯南保护珍娜,在成功后把他们全部杀死,塔拉米斯派出侍卫长邦伯塔与柯南同行并暗中监视。柯南一行在路上救下了东方巫师和黑人女战士,加上盗贼好友,七人抵达了藏着邪恶之心的湖中城堡,城中的巫师施法将珍娜夺走,柯南等人力战终于救出珍娜,而这仅仅是冒险之旅的开端……
Video
ID                                       : 1
Format                                   : AVC
Format/Info                              : Advanced Video Codec
Format settings, CABAC                   : Yes
Format settings, ReFrames                : 5 frames
Muxing mode                              : Header stripping
Codec ID                                 : V_MPEG4/ISO/AVC
Duration                                 : 1 h 41 min
Bit rate                                 : 9 297 kb/s
Width                                    : 1 920 pixels
Height                                   : 816 pixels
Display aspect ratio                     : 2.35:1
Frame rate mode                          : Constant
Frame rate                               : 23.976 (24000/1001) FPS
Color space                              : YUV
Chroma subsampling                       : 4:2:0
Bit depth                                : 8 bits
Scan type                                : Progressive
Bits/(Pixel*Frame)                       : 0.247
Stream size                              : 6.42 GiB (84%)
Writing library                          : x264 core 115 r2008 4c552d8
Encoding settings                        : cabac=1 / ref=5 / deblock=1:-1:-1 / analyse=0x3:0x113 / me=umh / subme=7 / psy=1 / psy_rd=1.00:0.00 / mixed_ref=1 / me_range=16 / chroma_me=1 / trellis=1 / 8x8dct=1 / cqm=0 / deadzone=21,11 / fast_pskip=1 / chroma_qp_offset=-2 / threads=12 / sliced_threads=0 / nr=0 / decimate=1 / interlaced=0 / bluray_compat=0 / constrained_intra=0 / bframes=3 / b_pyramid=2 / b_adapt=2 / b_bias=0 / direct=3 / weightb=1 / open_gop=0 / weightp=2 / keyint=250 / keyint_min=23 / scenecut=40 / intra_refresh=0 / rc_lookahead=40 / rc=2pass / mbtree=1 / bitrate=9297 / ratetol=1.0 / qcomp=0.60 / qpmin=0 / qpmax=69 / qpstep=4 / cplxblur=20.0 / qblur=0.5 / vbv_maxrate=50000 / vbv_bufsize=50000 / nal_hrd=none / ip_ratio=1.40 / aq=1:1.00
Language                                 : English
Default                                  : Yes
Forced                                   : Yes

Audio
ID                                       : 2
Format                                   : DTS
Format/Info                              : Digital Theater Systems
Mode                                     : 16
Format settings, Endianness              : Big
Muxing mode                              : Header stripping
Codec ID                                 : A_DTS
Duration                                 : 1 h 41 min
Bit rate mode                            : Constant
Bit rate                                 : 1 509 kb/s
Channel(s)                               : 6 channels
Channel positions                        : Front: L C R, Side: L R, LFE
Sampling rate                            : 48.0 kHz
Frame rate                               : 93.750 FPS (512 spf)
Bit depth                                : 24 bits
Compression mode                         : Lossy
Stream size                              : 1.07 GiB (14%)
Language                                 : English
Default                                  : Yes
Forced                                   : Yes



                                                                                                                                                                                                        
                                                                                                                                                                                                                                                                                                                                                                                                                                                                                                                                                                                                                                                                                                                                                                                                                                                        
d4847c6405572d60a70b7b69cac99d9f.torrent (80.05 KB)

回复

使用道具 举报

您需要登录后才可以回帖 登录 | 立即注册

本版积分规则

5n电影网  |网站地图

本网站所有资源来自网络,如无意中侵犯了您的权益,请发邮件至 [email protected],立即清除相关链接

GMT+8, 2019-8-26 00:21 , Processed in 0.082407 second(s), 31 queries .

Powered by Discuz! X3.2

© 2001-2013 Comsenz Inc.

快速回复 返回顶部 返回列表