请选择 进入手机版 | 继续访问电脑版

5n电影网

 找回密码
 立即注册

弯刀杀戮/弯刀2 Machete.Kills.2013.1080p.BluRay.x264-SPARKS 7.65GB

[复制链接]
电影首发 发表于 2019-6-13 04:09:10 | 显示全部楼层 |阅读模式


帖子完整标题:弯刀杀戮/弯刀2 Machete.Kills.2013.1080p.BluRay.x264-SPARKS 7.65GB




◎译  名 弯刀杀戮 / 弯刀2 / 弯刀:风云再起 / 杀千刀 / 索女·重炮·神经刀(港) / 绝煞刀锋2(台)
◎片  名 Machete Kills
◎年  代 2013
◎产  地 美国 / 俄罗斯
◎类  别 动作 / 惊悚 / 犯罪
◎语  言 英语
◎上映日期 2013-10-11(美国)
◎片  长 107分钟
◎导  演 罗伯特·罗德里格兹 Robert Rodriguez
◎编  剧 罗伯特·罗德里格兹 Robert Rodriguez / Kyle Ward
◎主  演 丹尼·特乔 Danny Trejo
      米歇尔·罗德里格兹 Michelle Rodriguez
      索菲娅·维加拉 Sofía Vergara
      艾梅柏·希尔德 Amber Heard
      Lady Gaga
      安东尼奥·班德拉斯 Antonio Banderas
      小库珀·古丁 Cuba Gooding Jr.
      杰西卡·阿尔芭 Jessica Alba
      德米安·比齐尔 Demián Bichir
      梅尔·吉布森 Mel Gibson
      查理·辛 Charlie Sheen


◎标  签 美国 | 暴力 | 动作 | Cult | B级片 | 血腥 | 2013 | 犯罪

◎简  介  

  身怀绝技的弯刀(丹尼·特乔 Danny Trejo 饰)在追查犯罪组织卡特尔的行动中,其女友兼搭档ICE特工莎塔娜(杰西卡·阿尔芭 Jessica Alba 饰)不慎遇害,弯刀也被作为杀人凶手判处绞刑。关键时刻,美国总统秘密将其招至华府,命弯刀前往美国和墨西哥的边界,调查革命武装组织头目马科斯·门德斯革命者(德米安·比齐尔 Demián Bichir 饰)是否有袭击美国的打算,一旦证据确凿即可将其抹杀。弯刀率先与圣·安东尼奥小姐(艾梅柏·希尔德 Amber Heard 饰)接洽,随后潜入墨西哥见到门德斯。此时的门德斯仿佛已经人格分裂,他将导弹的控制系统与自己的心脏相连,一旦遇害导弹便自动飞向美国华府,而他的人头又高达千万美金,以至于弯刀被迫担负起保护门德斯性命的任务。
返回美国的道路杀机四伏,凶险非常,更有意想不到的阴谋等待着他……

◎获奖情况  

  第34届金酸莓奖(2014)
  最差女配角(提名) Lady Gaga


Video
ID                                       : 1
Format                                   : AVC
Format/Info                              : Advanced Video Codec
Format settings, CABAC                   : Yes
Format settings, ReFrames                : 4 frames
Codec ID                                 : V_MPEG4/ISO/AVC
Duration                                 : 1 h 48 min
Bit rate                                 : 8 625 kb/s
Width                                    : 1 920 pixels
Height                                   : 1 040 pixels
Display aspect ratio                     : 1.85:1
Frame rate mode                          : Constant
Frame rate                               : 23.976 (24000/1001) FPS
Color space                              : YUV
Chroma subsampling                       : 4:2:0
Bit depth                                : 8 bits
Scan type                                : Progressive
Bits/(Pixel*Frame)                       : 0.180
Stream size                              : 6.36 GiB (83%)
Writing library                          : x264 core 140 r2377 1ca7bb9
Encoding settings                        : cabac=1 / ref=4 / deblock=1:0:0 / analyse=0x3:0x133 / me=umh / subme=8 / psy=1 / psy_rd=1.00:0.00 / mixed_ref=1 / me_range=16 / chroma_me=1 / trellis=1 / 8x8dct=1 / cqm=0 / deadzone=21,11 / fast_pskip=0 / chroma_qp_offset=-2 / threads=18 / lookahead_threads=3 / sliced_threads=0 / nr=0 / decimate=1 / interlaced=0 / bluray_compat=0 / constrained_intra=0 / bframes=3 / b_pyramid=2 / b_adapt=2 / b_bias=0 / direct=3 / weightb=1 / open_gop=0 / weightp=2 / keyint=250 / keyint_min=23 / scenecut=40 / intra_refresh=0 / rc_lookahead=50 / rc=2pass / mbtree=1 / bitrate=8625 / ratetol=1.0 / qcomp=0.60 / qpmin=0 / qpmax=69 / qpstep=4 / cplxblur=20.0 / qblur=0.5 / ip_ratio=1.40 / aq=1:1.00
Language                                 : English
Default                                  : Yes
Forced                                   : No

Audio
ID                                       : 2
Format                                   : DTS
Format/Info                              : Digital Theater Systems
Mode                                     : 16
Format settings, Endianness              : Big
Codec ID                                 : A_DTS
Duration                                 : 1 h 48 min
Bit rate mode                            : Constant
Bit rate                                 : 1 509 kb/s
Channel(s)                               : 6 channels
Channel positions                        : Front: L C R, Side: L R, LFE
Sampling rate                            : 48.0 kHz
Frame rate                               : 93.750 FPS (512 spf)
Bit depth                                : 24 bits
Compression mode                         : Lossy
Stream size                              : 1.14 GiB (15%)
Language                                 : English
Default                                  : Yes
Forced                                   : No

Text
ID                                       : 3
Format                                   : UTF-8
Codec ID                                 : S_TEXT/UTF8
Codec ID/Info                            : UTF-8 Plain Text
Language                                 : English
Default                                  : No
Forced                                   : No

Menu
00:00:00.000                             : en:00:00:00.000
00:07:48.760                             : en:00:07:48.760
00:12:12.398                             : en:00:12:12.398
00:19:27.583                             : en:00:19:27.583
00:25:25.399                             : en:00:25:25.399
00:30:35.959                             : en:00:30:35.959
00:34:15.345                             : en:00:34:15.345
00:39:33.121                             : en:00:39:33.121
00:45:35.107                             : en:00:45:35.107
00:50:30.236                             : en:00:50:30.236
00:55:07.429                             : en:00:55:07.429
00:59:08.295                             : en:00:59:08.295
01:06:55.929                             : en:01:06:55.929
01:11:56.938                             : en:01:11:56.938
01:16:38.177                             : en:01:16:38.177
01:20:34.538                             : en:01:20:34.538
01:25:08.812                             : en:01:25:08.812
01:30:13.158                             : en:01:30:13.158
01:37:43.483                             : en:01:37:43.483
01:41:54.233                             : en:01:41:54.233



                                                                                                                                                                                                        
                                                                                                                                                                                                                                                                                                                                                                                                                                                                                                                                                                                                                                                                                                                                                                                                                                                        
0a5c2437cad89b175fd8af810b677606.torrent (77.01 KB)

回复

使用道具 举报

您需要登录后才可以回帖 登录 | 立即注册

本版积分规则

5n电影网  |网站地图

本网站所有资源来自网络,如无意中侵犯了您的权益,请发邮件至 [email protected],立即清除相关链接

GMT+8, 2019-6-26 01:02 , Processed in 0.068925 second(s), 31 queries .

Powered by Discuz! X3.2

© 2001-2013 Comsenz Inc.

快速回复 返回顶部 返回列表